Guest User

Untitled

a guest
Dec 15th, 2017
342
Never
Not a member of Pastebin yet? Sign Up, it unlocks many cool features!
  1. General
  2. Unique ID : 180775088712127747133029725140399551744 (0x88000401F739BFA98BDB24E6453DF500)
  3. Complete name : G:\VideoSSD\The.Angry.Birds.Movie.2016.BDREMUX.2160p.4K.UltraHD.HEVC.HDR.ExKinoRay.mkv
  4. Format : Matroska
  5. Format version : Version 4 / Version 2
  6. File size : 44.7 GiB
  7. Duration : 1 h 37 min
  8. Overall bit rate mode : Variable
  9. Overall bit rate : 65.8 Mb/s
  10. Movie name : The Angry Birds Movie 2016 from ExKinoRay
  11. Encoded date : UTC 2017-12-15 11:47:57
  12. Writing application : mkvmerge v18.0.0 ('Apricity') 64-bit
  13. Writing library : libebml v1.3.5 + libmatroska v1.4.8
  14.  
  15. Video
  16. ID : 1
  17. Format : HEVC
  18. Format/Info : High Efficiency Video Coding
  19. Format profile : Main 10@L5.1@High
  20. Codec ID : V_MPEGH/ISO/HEVC
  21. Duration : 1 h 37 min
  22. Bit rate : 59.7 Mb/s
  23. Width : 3 840 pixels
  24. Height : 2 160 pixels
  25. Display aspect ratio : 16:9
  26. Frame rate mode : Constant
  27. Frame rate : 23.976 (24000/1001) FPS
  28. Color space : YUV
  29. Chroma subsampling : 4:2:0 (Type 2)
  30. Bit depth : 10 bits
  31. Bits/(Pixel*Frame) : 0.300
  32. Stream size : 40.5 GiB (91%)
  33. Language : English
  34. Default : Yes
  35. Forced : No
  36. Color range : Limited
  37. Color primaries : BT.2020
  38. Transfer characteristics : PQ
  39. Matrix coefficients : BT.2020 non-constant
  40. Mastering display color pri : R: x=0.680000 y=0.320000, G: x=0.265000 y=0.690000, B: x=0.150000 y=0.060000, White point: x=0.312700 y=0.329000
  41. Mastering display luminance : min: 0.0050 cd/m2, max: 4000.0000 cd/m2
  42. Maximum Content Light Level : 414 cd/m2
  43. Maximum Frame-Average Light : 233 cd/m2
  44.  
  45. Audio #1
  46. ID : 2
  47. Format : AC-3
  48. Format/Info : Audio Coding 3
  49. Format settings, Endianness : Big
  50. Codec ID : A_AC3
  51. Duration : 1 h 37 min
  52. Bit rate mode : Constant
  53. Bit rate : 640 kb/s
  54. Channel(s) : 6 channels
  55. Channel positions : Front: L C R, Side: L R, LFE
  56. Sampling rate : 48.0 kHz
  57. Frame rate : 31.250 FPS (1536 SPF)
  58. Bit depth : 16 bits
  59. Compression mode : Lossy
  60. Stream size : 445 MiB (1%)
  61. Title : Dub [License]
  62. Language : Russian
  63. Service kind : Complete Main
  64. Default : Yes
  65. Forced : No
  66.  
  67. Audio #2
  68. ID : 3
  69. Format : TrueHD
  70. Format profile : TrueHD+Atmos / TrueHD
  71. Codec ID : A_TRUEHD
  72. Duration : 1 h 37 min
  73. Bit rate mode : Variable
  74. Bit rate : 4 747 kb/s
  75. Maximum bit rate : 6 972 kb/s
  76. Channel(s) : Object Based / 8 channels
  77. Channel positions : Object Based / Front: L C R, Side: L R, Back: L R, LFE
  78. Sampling rate : / 48.0 kHz
  79. Frame rate : 1 200.000 FPS (40 SPF)
  80. Compression mode : Lossless
  81. Stream size : 3.22 GiB (7%)
  82. Title : Original
  83. Language : English
  84. Default : No
  85. Forced : No
  86.  
  87. Audio #3
  88. ID : 4
  89. Format : AC-3
  90. Format/Info : Audio Coding 3
  91. Format settings, Endianness : Big
  92. Codec ID : A_AC3
  93. Duration : 1 h 37 min
  94. Bit rate mode : Constant
  95. Bit rate : 640 kb/s
  96. Channel(s) : 6 channels
  97. Channel positions : Front: L C R, Side: L R, LFE
  98. Sampling rate : 48.0 kHz
  99. Frame rate : 31.250 FPS (1536 SPF)
  100. Bit depth : 16 bits
  101. Compression mode : Lossy
  102. Stream size : 445 MiB (1%)
  103. Language : English
  104. Service kind : Complete Main
  105. Default : No
  106. Forced : No
  107.  
  108. Text #1
  109. ID : 5
  110. Format : UTF-8
  111. Codec ID : S_TEXT/UTF8
  112. Codec ID/Info : UTF-8 Plain Text
  113. Duration : 1 h 25 min
  114. Bit rate : 2 b/s
  115. Count of elements : 54
  116. Stream size : 1.71 KiB (0%)
  117. Title : Forced
  118. Language : Russian
  119. Default : Yes
  120. Forced : No
  121.  
  122. Text #2
  123. ID : 6
  124. Format : UTF-8
  125. Codec ID : S_TEXT/UTF8
  126. Codec ID/Info : UTF-8 Plain Text
  127. Duration : 1 h 29 min
  128. Bit rate : 99 b/s
  129. Count of elements : 1579
  130. Stream size : 65.1 KiB (0%)
  131. Title : Full
  132. Language : Russian
  133. Default : No
  134. Forced : No
  135.  
  136. Text #3
  137. ID : 7
  138. Format : UTF-8
  139. Codec ID : S_TEXT/UTF8
  140. Codec ID/Info : UTF-8 Plain Text
  141. Duration : 1 h 29 min
  142. Bit rate : 64 b/s
  143. Count of elements : 1518
  144. Stream size : 42.0 KiB (0%)
  145. Title : Full
  146. Language : English
  147. Default : No
  148. Forced : No
  149.  
  150. Text #4
  151. ID : 8
  152. Format : UTF-8
  153. Codec ID : S_TEXT/UTF8
  154. Codec ID/Info : UTF-8 Plain Text
  155. Duration : 1 h 32 min
  156. Bit rate : 89 b/s
  157. Count of elements : 2275
  158. Stream size : 60.5 KiB (0%)
  159. Title : SDH
  160. Language : English
  161. Default : No
  162. Forced : No
  163.  
  164. Menu
  165. 00:00:00.000 : en:00:00:00.000
  166. 00:07:05.091 : en:00:07:05.091
  167. 00:13:38.109 : en:00:13:38.109
  168. 00:20:22.638 : en:00:20:22.638
  169. 00:25:38.620 : en:00:25:38.620
  170. 00:32:57.392 : en:00:32:57.392
  171. 00:38:34.812 : en:00:38:34.812
  172. 00:41:36.327 : en:00:41:36.327
  173. 00:47:12.955 : en:00:47:12.955
  174. 00:52:04.288 : en:00:52:04.288
  175. 00:56:07.698 : en:00:56:07.698
  176. 00:59:08.712 : en:00:59:08.712
  177. 01:03:43.319 : en:01:03:43.319
  178. 01:11:45.801 : en:01:11:45.801
  179. 01:18:55.522 : en:01:18:55.522
  180. 01:23:54.821 : en:01:23:54.821
RAW Paste Data

Adblocker detected! Please consider disabling it...

We've detected AdBlock Plus or some other adblocking software preventing Pastebin.com from fully loading.

We don't have any obnoxious sound, or popup ads, we actively block these annoying types of ads!

Please add Pastebin.com to your ad blocker whitelist or disable your adblocking software.

×