GrabHD

Untitled

Mar 1st, 2020
187
Never
Not a member of Pastebin yet? Sign Up, it unlocks many cool features!
  1. General
  2. Unique ID : 330170740018786405268737212587846264890 (0xF864924D94522FD6C105B7536855E83A)
  3. Complete name : D:ВИДЕОфильмыКрасавица и чудовище.mkv
  4. Format : Matroska
  5. Format version : Version 4
  6. File size : 4.41 GiB
  7. Duration : 1 h 31 min
  8. Overall bit rate : 6 881 kb/s
  9. Movie name : Красавица и чудовище
  10. Writing application : XviD4PSP 7.0.461 DAILY
  11. Writing library : Lavf57.71.100
  12. ErrorDetectionType : Per level 1
  13. Attachments : poster.jpg
  14. ACTORS : Робби Бенсон, Джесси Корти,
  15. COUNTRY : США
  16. DATE : 1991
  17. DIRECTOR : Гари Труздейл
  18. ENCODING_INFO : MATROSKA,WEBM > MKV 1080p 10-bit / H264 > X265 CRF 18.0 Medium / AC3 > AC3 CBR 384kbps / DTS-HD MA > AC3 CBR 448kbps
  19. GENRE : мультфильм, мюзикл, фэнтези
  20. HD_VIDEO : 1
  21. Language : und
  22. MEDIA_TYPE : 9
  23. ORIGINAL_TITLE : Beauty and the Beast
  24.  
  25. Video
  26. ID : 1
  27. Format : HEVC
  28. Format/Info : High Efficiency Video Coding
  29. Format profile : Main 10@L4.1@High
  30. Codec ID : V_MPEGH/ISO/HEVC
  31. Duration : 1 h 31 min
  32. Bit rate : 5 912 kb/s
  33. Width : 1 920 pixels
  34. Height : 1 080 pixels
  35. Display aspect ratio : 16:9
  36. Frame rate mode : Constant
  37. Frame rate : 23.976 (24000/1001) FPS
  38. Color space : YUV
  39. Chroma subsampling : 4:2:0
  40. Bit depth : 10 bits
  41. Bits/(Pixel*Frame) : 0.119
  42. Stream size : 3.79 GiB (86%)
  43. Title : Beauty.and.the.Beast.1991.BDRemux.1080p.KORSAR
  44. Writing library : x265 2.9+9-f74003e88622:[Windows][GCC 7.3.0][64 bit] 10bit
  45. Encoding settings : cpuid=1111039 / frame-threads=13 / numa-pools=12 / wpp / no-pmode / no-pme / no-psnr / no-ssim / log-level=3 / input-csp=1 / input-res=1920x1080 / interlace=0 / total-frames=0 / level-idc=41 / high-tier=1 / uhd-bd=0 / ref=5 / allow-non-conformance / no-repeat-headers / annexb / no-aud / no-hrd / info / hash=0 / no-temporal-layers / no-open-gop / min-keyint=24 / keyint=240 / gop-lookahead=0 / bframes=7 / b-adapt=2 / b-pyramid / bframe-bias=0 / rc-lookahead=40 / lookahead-slices=6 / scenecut=40 / radl=0 / no-intra-refresh / ctu=64 / min-cu-size=8 / rect / amp / max-tu-size=32 / tu-inter-depth=1 / tu-intra-depth=1 / limit-tu=0 / rdoq-level=0 / dynamic-rd=0.00 / no-ssim-rd / signhide / no-tskip / nr-intra=0 / nr-inter=0 / no-constrained-intra / no-strong-intra-smoothing / max-merge=2 / limit-refs=3 / no-limit-modes / me=3 / subme=7 / merange=57 / temporal-mvp / weightp / no-weightb / no-analyze-src-pics / deblock=-3:-3 / no-sao / no-sao-non-deblock / rd=3 / no-early-skip / rskip / no-fast-intra / no-tskip-fast / no-cu-lossless / no-b-intra / no-splitrd-skip / rdpenalty=0 / psy-rd=2.00 / psy-rdoq=0.00 / no-rd-refine / no-lossless / cbqpoffs=0 / crqpoffs=0 / rc=crf / crf=18.0 / qcomp=0.70 / qpstep=4 / stats-write=0 / stats-read=0 / vbv-maxrate=50000 / vbv-bufsize=50000 / vbv-init=0.9 / crf-max=0.0 / crf-min=0.0 / ipratio=1.40 / pbratio=1.30 / aq-mode=1 / aq-strength=1.00 / cutree / zone-count=0 / no-strict-cbr / qg-size=32 / no-rc-grain / qpmax=69 / qpmin=0 / no-const-vbv / sar=1 / overscan=0 / videoformat=5 / range=0 / colorprim=1 / transfer=1 / colormatrix=1 / chromaloc=0 / display-window=0 / max-cll=0,0 / min-luma=0 / max-luma=1023 / log2-max-poc-lsb=8 / vui-timing-info / vui-hrd-info / slices=1 / no-opt-qp-pps / no-opt-ref-list-length-pps / no-multi-pass-opt-rps / scenecut-bias=0.05 / no-opt-cu-delta-qp / no-aq-motion / no-hdr / no-hdr-opt / no-dhdr10-opt / no-idr-recovery-sei / analysis-reuse-level=5 / scale-factor=0 / refine-intra=0 / refine-inter=0 / refine-mv=0 / no-limit-sao / ctu-info=0 / no-lowpass-dct / refine-mv-type=0 / copy-pic=1 / max-ausize-factor=1.0 / no-dynamic-refine / no-single-sei
  46. Language : English
  47. Default : Yes
  48. Forced : No
  49. Color range : Limited
  50. Color primaries : BT.709
  51. Transfer characteristics : BT.709
  52. Matrix coefficients : BT.709
  53.  
  54. Audio #1
  55. ID : 2
  56. Format : AC-3
  57. Format/Info : Audio Coding 3
  58. Commercial name : Dolby Digital
  59. Codec ID : A_AC3
  60. Duration : 1 h 31 min
  61. Bit rate mode : Constant
  62. Bit rate : 384 kb/s
  63. Channel(s) : 6 channels
  64. Channel layout : L R C LFE Ls Rs
  65. Sampling rate : 48.0 kHz
  66. Frame rate : 31.250 FPS (1536 SPF)
  67. Bit depth : 16 bits
  68. Compression mode : Lossy
  69. Stream size : 252 MiB (6%)
  70. Title : DUB, R5
  71. Language : Russian
  72. Service kind : Complete Main
  73. Default : Yes
  74. Forced : No
  75.  
  76. Audio #2
  77. ID : 3
  78. Format : AC-3
  79. Format/Info : Audio Coding 3
  80. Commercial name : Dolby Digital
  81. Codec ID : A_AC3
  82. Duration : 1 h 31 min
  83. Bit rate mode : Constant
  84. Bit rate : 448 kb/s
  85. Channel(s) : 6 channels
  86. Channel layout : L R C LFE Ls Rs
  87. Sampling rate : 48.0 kHz
  88. Frame rate : 31.250 FPS (1536 SPF)
  89. Bit depth : 16 bits
  90. Compression mode : Lossy
  91. Stream size : 294 MiB (7%)
  92. Title : Оригинал
  93. Language : English
  94. Service kind : Complete Main
  95. Default : No
  96. Forced : No
  97.  
  98. Text #1
  99. ID : 4
  100. Format : UTF-8
  101. Codec ID : S_TEXT/UTF8
  102. Codec ID/Info : UTF-8 Plain Text
  103. Title : Full №1
  104. Language : Russian
  105. Default : Yes
  106. Forced : No
  107.  
  108. Text #2
  109. ID : 5
  110. Format : UTF-8
  111. Codec ID : S_TEXT/UTF8
  112. Codec ID/Info : UTF-8 Plain Text
  113. Title : Full
  114. Language : English
  115. Default : No
  116. Forced : No
  117.  
  118. Menu
  119. 00:00:00.000 : :Chapter 1
  120. 00:03:19.616 : :Chapter 2
  121. 00:08:24.837 : :Chapter 3
  122. 00:13:50.955 : :Chapter 4
  123. 00:17:34.887 : :Chapter 5
  124. 00:20:53.835 : :Chapter 6
  125. 00:25:34.241 : :Chapter 7
  126. 00:27:04.748 : :Chapter 8
  127. 00:34:58.846 : :Chapter 9
  128. 00:38:28.848 : :Chapter 10
  129. 00:43:50.794 : :Chapter 11
  130. 00:49:25.629 : :Chapter 12
  131. 00:51:59.074 : :Chapter 13
  132. 00:53:59.736 : :Chapter 14
  133. 00:57:26.443 : :Chapter 15
  134. 01:03:07.241 : :Chapter 16
  135. 01:09:42.553 : :Chapter 17
  136. 01:11:28.450 : :Chapter 18
  137. 01:14:22.458 : :Chapter 19
  138. 01:17:15.380 : :Chapter 20
  139. 01:21:48.904 : :Chapter 21
  140. 01:25:59.988 : :Chapter 22
RAW Paste Data