SHARE
TWEET

Greta WEB-DL 720p

dirtyharrys May 15th, 2019 73 Never
Not a member of Pastebin yet? Sign Up, it unlocks many cool features!
  1. General
  2. Unique ID                   : 159893252064902302076598818022846242085 (0x784A51F9009D8B1A3B43567C494A1D25)
  3. Complete name               : E:\V0VCR3JldGE.mkv
  4. Format                      : Matroska
  5. Format version              : Version 4
  6. File size                   : 1.88 GiB
  7. Duration                    : 1 h 38 min
  8. Overall bit rate            : 2 727 kb/s
  9. Movie name                  : Greta WEB-DL / Greta WEB-DL
  10. Encoded date                : UTC 2019-05-15 07:35:44
  11. Writing application         : mkvmerge v30.1.0 ('Forever And More') 32-bit
  12. Writing library             : libebml v1.3.6 + libmatroska v1.4.9
  13. Copyright                   : Movies HDs 2019
  14. ARTIST                      : HarshLearner
  15.  
  16. Video
  17. ID                          : 1
  18. Format                      : AVC
  19. Format/Info                 : Advanced Video Codec
  20. Format profile              : High@L3.1
  21. Format settings             : CABAC / 4 Ref Frames
  22. Format settings, CABAC      : Yes
  23. Format settings, ReFrames   : 4 frames
  24. Codec ID                    : V_MPEG4/ISO/AVC
  25. Duration                    : 1 h 38 min
  26. Bit rate mode               : Constant
  27. Bit rate                    : 2 341 kb/s
  28. Nominal bit rate            : 6 000 kb/s
  29. Width                       : 1 248 pixels
  30. Height                      : 520 pixels
  31. Display aspect ratio        : 2.40:1
  32. Frame rate mode             : Constant
  33. Frame rate                  : 23.976 (24000/1001) FPS
  34. Color space                 : YUV
  35. Chroma subsampling          : 4:2:0
  36. Bit depth                   : 8 bits
  37. Scan type                   : Progressive
  38. Bits/(Pixel*Frame)          : 0.150
  39. Stream size                 : 1.61 GiB (86%)
  40. Title                       : Greta
  41. Default                     : Yes
  42. Forced                      : No
  43. Color range                 : Limited
  44. Color primaries             : BT.709
  45. Transfer characteristics    : BT.709
  46. Matrix coefficients         : BT.709
  47.  
  48. Audio
  49. ID                          : 2
  50. Format                      : AC-3
  51. Format/Info                 : Audio Coding 3
  52. Commercial name             : Dolby Digital
  53. Codec ID                    : A_AC3
  54. Duration                    : 1 h 38 min
  55. Bit rate mode               : Constant
  56. Bit rate                    : 384 kb/s
  57. Channel(s)                  : 6 channels
  58. Channel layout              : L R C LFE Ls Rs
  59. Sampling rate               : 48.0 kHz
  60. Frame rate                  : 31.250 FPS (1536 SPF)
  61. Bit depth                   : 16 bits
  62. Compression mode            : Lossy
  63. Stream size                 : 271 MiB (14%)
  64. Service kind                : Complete Main
  65. Default                     : Yes
  66. Forced                      : No
  67.  
  68. Text #1
  69. ID                          : 3
  70. Format                      : UTF-8
  71. Codec ID                    : S_TEXT/UTF8
  72. Codec ID/Info               : UTF-8 Plain Text
  73. Duration                    : 1 h 32 min
  74. Bit rate                    : 44 b/s
  75. Count of elements           : 1176
  76. Stream size                 : 29.9 KiB (0%)
  77. Language                    : English
  78. Default                     : No
  79. Forced                      : No
  80.  
  81. Text #2
  82. ID                          : 4
  83. Format                      : UTF-8
  84. Codec ID                    : S_TEXT/UTF8
  85. Codec ID/Info               : UTF-8 Plain Text
  86. Duration                    : 1 h 38 min
  87. Bit rate                    : 50 b/s
  88. Count of elements           : 1477
  89. Stream size                 : 36.5 KiB (0%)
  90. Title                       : English SDH
  91. Language                    : English
  92. Default                     : No
  93. Forced                      : No
  94.  
  95. Text #3
  96. ID                          : 5
  97. Format                      : UTF-8
  98. Codec ID                    : S_TEXT/UTF8
  99. Codec ID/Info               : UTF-8 Plain Text
  100. Duration                    : 1 h 31 min
  101. Bit rate                    : 45 b/s
  102. Count of elements           : 1076
  103. Stream size                 : 30.6 KiB (0%)
  104. Language                    : Spanish
  105. Default                     : Yes
  106. Forced                      : Yes
RAW Paste Data
We use cookies for various purposes including analytics. By continuing to use Pastebin, you agree to our use of cookies as described in the Cookies Policy. OK, I Understand
 
Top