SHARE
TWEET

Greta BluRay 1080p

dirtyharrys May 15th, 2019 (edited) 78 Never
Not a member of Pastebin yet? Sign Up, it unlocks many cool features!
  1. General
  2. Unique ID                   : 301987266163298795264220531481711214978 (0xE330A1C269ABB47E5379F91F71300182)
  3. Complete name               : E:\Greta.2018.1080p.BluRay.x264\Greta.2018.1080p.BluRay.x264.mkv
  4. Format                      : Matroska
  5. Format version              : Version 4
  6. File size                   : 2.34 GiB
  7. Duration                    : 1 h 38 min
  8. Overall bit rate            : 3 397 kb/s
  9. Movie name                  : Greta BR-RIP / Greta BR-RIP
  10. Encoded date                : UTC 2019-10-04 06:42:13
  11. Writing application         : mkvmerge v30.1.0 ('Forever And More') 32-bit
  12. Writing library             : libebml v1.3.6 + libmatroska v1.4.9
  13. Copyright                   : HARSHLEARNER
  14.  
  15. Video
  16. ID                          : 1
  17. Format                      : AVC
  18. Format/Info                 : Advanced Video Codec
  19. Format profile              : High@L4.1
  20. Format settings             : CABAC / 4 Ref Frames
  21. Format settings, CABAC      : Yes
  22. Format settings, ReFrames   : 4 frames
  23. Codec ID                    : V_MPEG4/ISO/AVC
  24. Duration                    : 1 h 38 min
  25. Bit rate                    : 2 500 kb/s
  26. Width                       : 1 920 pixels
  27. Height                      : 808 pixels
  28. Display aspect ratio        : 2.40:1
  29. Frame rate mode             : Constant
  30. Frame rate                  : 23.976 (23976/1000) FPS
  31. Color space                 : YUV
  32. Chroma subsampling          : 4:2:0
  33. Bit depth                   : 8 bits
  34. Scan type                   : Progressive
  35. Bits/(Pixel*Frame)          : 0.067
  36. Stream size                 : 1.72 GiB (74%)
  37. Title                       : Greta
  38. Writing library             : x264 core 152 r2851M ba24899
  39. Default                     : Yes
  40. Forced                      : No
  41.  
  42. Audio #1
  43. ID                          : 2
  44. Format                      : AC-3
  45. Format/Info                 : Audio Coding 3
  46. Commercial name             : Dolby Digital
  47. Codec ID                    : A_AC3
  48. Duration                    : 1 h 38 min
  49. Bit rate mode               : Constant
  50. Bit rate                    : 448 kb/s
  51. Channel(s)                  : 6 channels
  52. Channel layout              : L R C LFE Ls Rs
  53. Sampling rate               : 48.0 kHz
  54. Frame rate                  : 31.250 FPS (1536 SPF)
  55. Bit depth                   : 16 bits
  56. Compression mode            : Lossy
  57. Stream size                 : 316 MiB (13%)
  58. Title                       : English
  59. Language                    : English
  60. Service kind                : Complete Main
  61. Default                     : No
  62. Forced                      : No
  63.  
  64. Audio #2
  65. ID                          : 3
  66. Format                      : AC-3
  67. Format/Info                 : Audio Coding 3
  68. Commercial name             : Dolby Digital
  69. Codec ID                    : A_AC3
  70. Duration                    : 1 h 38 min
  71. Bit rate mode               : Constant
  72. Bit rate                    : 448 kb/s
  73. Channel(s)                  : 6 channels
  74. Channel layout              : L R C LFE Ls Rs
  75. Sampling rate               : 48.0 kHz
  76. Frame rate                  : 31.250 FPS (1536 SPF)
  77. Bit depth                   : 16 bits
  78. Compression mode            : Lossy
  79. Stream size                 : 315 MiB (13%)
  80. Title                       : Spanish
  81. Language                    : Spanish
  82. Service kind                : Complete Main
  83. Default                     : Yes
  84. Forced                      : Yes
  85.  
  86. Text #1
  87. ID                          : 4
  88. Format                      : UTF-8
  89. Codec ID                    : S_TEXT/UTF8
  90. Codec ID/Info               : UTF-8 Plain Text
  91. Duration                    : 1 h 32 min
  92. Bit rate                    : 44 b/s
  93. Count of elements           : 1078
  94. Stream size                 : 29.9 KiB (0%)
  95. Title                       : English
  96. Language                    : English
  97. Default                     : No
  98. Forced                      : No
  99.  
  100. Text #2
  101. ID                          : 5
  102. Format                      : UTF-8
  103. Codec ID                    : S_TEXT/UTF8
  104. Codec ID/Info               : UTF-8 Plain Text
  105. Duration                    : 1 h 31 min
  106. Bit rate                    : 45 b/s
  107. Count of elements           : 1076
  108. Stream size                 : 30.6 KiB (0%)
  109. Title                       : Spanish
  110. Language                    : Spanish
  111. Default                     : Yes
  112. Forced                      : Yes
  113.  
  114. Menu
  115. 00:00:00.000                : :Chapter 01
  116. 00:05:16.774                : :Chapter 02
  117. 00:10:20.328                : :Chapter 03
  118. 00:13:56.794                : :Chapter 04
  119. 00:18:46.583                : :Chapter 05
  120. 00:23:06.927                : :Chapter 06
  121. 00:28:07.268                : :Chapter 07
  122. 00:31:34.726                : :Chapter 08
  123. 00:36:10.960                : :Chapter 09
  124. 00:43:05.291                : :Chapter 10
  125. 00:46:03.218                : :Chapter 11
  126. 00:50:23.061                : :Chapter 12
  127. 00:55:50.013                : :Chapter 13
  128. 01:02:14.981                : :Chapter 14
  129. 01:07:26.542                : :Chapter 15
  130. 01:12:38.854                : :Chapter 16
  131. 01:16:42.764                : :Chapter 17
  132. 01:23:08.108                : :Chapter 18
  133. 01:27:27.325                : :Chapter 19
  134. 01:34:03.721                : :Chapter 20
RAW Paste Data
We use cookies for various purposes including analytics. By continuing to use Pastebin, you agree to our use of cookies as described in the Cookies Policy. OK, I Understand
 
Top