SHARE
TWEET

UNKLE - belfast may 2000 cd1

a guest Aug 3rd, 2016 195 Never
Not a member of Pastebin yet? Sign Up, it unlocks many cool features!
  1. TITLE "Belfast May 2000"
  2. PERFORMER "UNKLE"
  3. FILE "belfast_may_2000_cd1" MP3
  4. REM NEW-TRACK
  5.   TRACK 01 AUDIO
  6.   TITLE "Get Ready (UNKLE Sounds Edit)"
  7.   PERFORMER "Rare Earth"
  8.   INDEX 01 00:00:00
  9. REM NEW-TRACK
  10.   TRACK 02 AUDIO
  11.   TITLE "Lonley Soul (UNKLE Sounds Edit)"
  12.   PERFORMER "UNKLE"
  13.   INDEX 01 03:39:12
  14. REM NEW-TRACK
  15.   TRACK 03 AUDIO
  16.   TITLE "Broken Head II"
  17.   PERFORMER "South"
  18.   INDEX 01 09:44:38
  19. REM NEW-TRACK
  20.   TRACK 04 AUDIO
  21.   TITLE "Broken Head II (Jagz Kooner Mix)"
  22.   PERFORMER "South"
  23.   INDEX 01 12:59:52
  24. REM NEW-TRACK
  25.   TRACK 05 AUDIO
  26.   TITLE "Feel Good Hit Of The Summer (UNKLE Sounds Edit)"
  27.   PERFORMER "Queens Of The Stone Age"
  28.   INDEX 01 16:01:00
  29. REM NEW-TRACK
  30.   TRACK 06 AUDIO
  31.   TITLE "I'm Not Trading (UNKLE - In Utero Mix)"
  32.   PERFORMER "Sunna"
  33.   INDEX 01 22:56:71
  34. REM NEW-TRACK
  35.   TRACK 07 AUDIO
  36.   TITLE "Nursery Rhyme (UNKLE Sounds Edit)"
  37.   PERFORMER "UNKLE"
  38.   INDEX 01 26:38:01
  39. REM NEW-TRACK
  40.   TRACK 08 AUDIO
  41.   TITLE "No Souvenirs (UNKLE Remix)"
  42.   PERFORMER "The Prodigy Feat. 3D"
  43.   INDEX 01 31:55:39
  44. REM NEW-TRACK
  45.   TRACK 09 AUDIO
  46.   TITLE "Rabbit In Your Headlights (UNKLE Sounds Edit)"
  47.   PERFORMER "UNKLE"
  48.   INDEX 01 37:44:11
  49. REM NEW-TRACK
  50.   TRACK 10 AUDIO
  51.   TITLE "Kick A Hole (Tigerstyle)"
  52.   PERFORMER "Forme (2)"
  53.   INDEX 01 43:54:66
  54. REM NEW-TRACK
  55.   TRACK 11 AUDIO
  56.   TITLE "Unknown Track"
  57.   PERFORMER "Unknown Artist"
  58.   INDEX 01 50:18:64
  59. REM NEW-TRACK
  60.   TRACK 12 AUDIO
  61.   TITLE "Feel It"
  62.   PERFORMER "Bushwacka!"
  63.   INDEX 01 56:04:63
  64. REM NEW-TRACK
  65.   TRACK 13 AUDIO
  66.   TITLE "Holes (UNKLE Sounds Edit)"
  67.   PERFORMER "Mercury Rev"
  68.   INDEX 01 62:40:14
  69. REM NEW-TRACK
  70.   TRACK 14 AUDIO
  71.   TITLE "Narco Tourists (UNKLE VIP Mix)"
  72.   PERFORMER "Slam Vs UNKLE"
  73.   INDEX 01 67:20:31
  74. REM NEW-TRACK
  75.   TRACK 15 AUDIO
  76.   TITLE "Nine Ways"
  77.   PERFORMER "JDS"
  78.   INDEX 01 73:16:08
  79. REM END-TITLE
RAW Paste Data
We use cookies for various purposes including analytics. By continuing to use Pastebin, you agree to our use of cookies as described in the Cookies Policy. OK, I Understand
Not a member of Pastebin yet?
Sign Up, it unlocks many cool features!
 
Top