Interfilm

Untitled

Jun 7th, 2014
236
Never
Not a member of Pastebin yet? Sign Up, it unlocks many cool features!
  1. Общее
  2. Almost.Human.2013.L2.BDRip.720p.mkv
  3. Формат : Matroska
  4. Версия формата : Version 4 / Version 2
  5. Размер файла : 3,38 Гбайт
  6. Продолжительность : 1 ч. 19 м.
  7. Общий поток : 6089 Кбит/сек
  8. Дата кодирования : UTC 2014-06-07 16:18:27
  9. Программа кодирования : mkvmerge v6.1.0 ('Old Devil') built on Mar 4 2013 09:10:42
  10. Библиотека кодирования : libebml v1.3.0 + libmatroska v1.4.0
  11.  
  12. Видео
  13. Идентификатор : 1
  14. Формат : AVC
  15. Формат/Информация : Advanced Video Codec
  16. Профиль формата : High@L4.1
  17. Параметр CABAC формата : Да
  18. Параметр ReFrames формата : 5 кадров
  19. Идентификатор кодека : V_MPEG4/ISO/AVC
  20. Продолжительность : 1 ч. 19 м.
  21. Битрейт : 4389 Кбит/сек
  22. Ширина : 1280 пикселей
  23. Высота : 536 пикселей
  24. Соотношение сторон : 2,40:1
  25. Режим частоты кадров : Постоянный
  26. Частота кадров : 23,976 кадра/сек
  27. Цветовое пространство : YUV
  28. Субдискретизация насыщенности : 4:2:0
  29. Битовая глубина : 8 бит
  30. Тип развёртки : Прогрессивная
  31. Бит/(Пиксели*Кадры) : 0.267
  32. Размер потока : 2,37 Гбайт (70%)
  33. Библиотека кодирования : x264 core 142 r2431 ac76440
  34. Настройки программы : cabac=1 / ref=5 / deblock=1:0:0 / analyse=0x3:0x133 / me=umh / subme=7 / psy=1 / psy_rd=1.00:0.00 / mixed_ref=1 / me_range=16 / chroma_me=1 / trellis=1 / 8x8dct=1 / cqm=0 / deadzone=21,11 / fast_pskip=0 / chroma_qp_offset=-2 / threads=18 / lookahead_threads=3 / sliced_threads=0 / nr=0 / decimate=1 / interlaced=0 / bluray_compat=0 / constrained_intra=0 / bframes=3 / b_pyramid=2 / b_adapt=1 / b_bias=0 / direct=1 / weightb=1 / open_gop=0 / weightp=2 / keyint=250 / keyint_min=23 / scenecut=40 / intra_refresh=0 / rc_lookahead=40 / rc=2pass / mbtree=1 / bitrate=4389 / ratetol=1.0 / qcomp=0.60 / qpmin=0 / qpmax=69 / qpstep=4 / cplxblur=20.0 / qblur=0.5 / ip_ratio=1.40 / aq=1:1.00
  35. Язык : English
  36. Default : Да
  37. Forced : Нет
  38.  
  39. Аудио #1
  40. Идентификатор : 2
  41. Формат : AC-3
  42. Формат/Информация : Audio Coding 3
  43. Расширение режима : CM (complete main)
  44. Параметр Endianness формата : Big
  45. Идентификатор кодека : A_AC3
  46. Продолжительность : 1 ч. 19 м.
  47. Вид битрейта : Постоянный
  48. Битрейт : 192 Кбит/сек
  49. Каналы : 2 канала
  50. Расположение каналов : Front: L R
  51. Частота : 48,0 КГц
  52. Битовая глубина : 16 бит
  53. Метод сжатия : С потерями
  54. Размер потока : 109 Мбайт (3%)
  55. Язык : Russian
  56. Default : Да
  57. Forced : Нет
  58.  
  59. Аудио #2
  60. Идентификатор : 3
  61. Формат : DTS
  62. Формат/Информация : Digital Theater Systems
  63. Режим : 16
  64. Параметр Endianness формата : Big
  65. Идентификатор кодека : A_DTS
  66. Продолжительность : 1 ч. 19 м.
  67. Вид битрейта : Постоянный
  68. Битрейт : 1509 Кбит/сек
  69. Каналы : 6 каналов
  70. Расположение каналов : Front: L C R, Side: L R, LFE
  71. Частота : 48,0 КГц
  72. Битовая глубина : 24 бит
  73. Метод сжатия : С потерями
  74. Размер потока : 858 Мбайт (25%)
  75. Язык : English
  76. Default : Нет
  77. Forced : Нет
  78.  
  79. Меню
  80. 00:00:00.000 : en:00:00:00.000
  81. 00:09:39.829 : en:00:09:39.829
  82. 00:14:18.858 : en:00:14:18.858
  83. 00:23:02.256 : en:00:23:02.256
  84. 00:28:27.206 : en:00:28:27.206
  85. 00:36:02.410 : en:00:36:02.410
  86. 00:41:53.094 : en:00:41:53.094
  87. 00:48:54.181 : en:00:48:54.181
  88. 00:54:20.674 : en:00:54:20.674
  89. 01:00:54.192 : en:01:00:54.192
  90. 01:05:52.198 : en:01:05:52.198
  91. 01:11:10.516 : en:01:11:10.516
RAW Paste Data