SHARE
TWEET

Dolor y gloria 1080p HEVC

dirtyharrys Jul 18th, 2019 143 Never
Not a member of Pastebin yet? Sign Up, it unlocks many cool features!
  1. General
  2. Unique ID                   : 26443329584277261300235423874712252726 (0x13E4CCCE9B48104BC02D66131F2EB136)
  3. Complete name               : E:\Dolor.y.Gloria.2019.WEB-DL.1080p.NF.HEVC.x265\Dolor.y.Gloria.2019.WEB-DL.1080p.NF.HEVC.x265.mkv
  4. Format                      : Matroska
  5. Format version              : Version 4
  6. File size                   : 2.83 GiB
  7. Duration                    : 1 h 53 min
  8. Overall bit rate            : 3 580 kb/s
  9. Movie name                  : Dolor y Gloria WEB-DL / Dolor y Gloria WEB-DL
  10. Encoded date                : UTC 2019-07-18 05:53:42
  11. Writing application         : mkvmerge v30.1.0 ('Forever And More') 32-bit
  12. Writing library             : libebml v1.3.6 + libmatroska v1.4.9
  13. Copyright                   : Movies HDs 2019
  14. ARTIST                      : HarshLearner
  15.  
  16. Video
  17. ID                          : 1
  18. Format                      : HEVC
  19. Format/Info                 : High Efficiency Video Coding
  20. Format profile              : Main 10@L4.1@High
  21. Codec ID                    : V_MPEGH/ISO/HEVC
  22. Duration                    : 1 h 53 min
  23. Bit rate                    : 2 939 kb/s
  24. Width                       : 1 920 pixels
  25. Height                      : 1 032 pixels
  26. Display aspect ratio        : 1.85:1
  27. Frame rate mode             : Constant
  28. Frame rate                  : 24.000 FPS
  29. Color space                 : YUV
  30. Chroma subsampling          : 4:2:0
  31. Bit depth                   : 10 bits
  32. Bits/(Pixel*Frame)          : 0.062
  33. Stream size                 : 2.32 GiB (82%)
  34. Title                       : Dolor y Gloria
  35. Language                    : English
  36. Default                     : Yes
  37. Forced                      : No
  38. Color range                 : Limited
  39. Color primaries             : BT.709
  40. Transfer characteristics    : BT.709
  41. Matrix coefficients         : BT.709
  42.  
  43. Audio
  44. ID                          : 2
  45. Format                      : E-AC-3
  46. Format/Info                 : Enhanced AC-3
  47. Commercial name             : Dolby Digital Plus
  48. Codec ID                    : A_EAC3
  49. Duration                    : 1 h 53 min
  50. Bit rate mode               : Constant
  51. Bit rate                    : 640 kb/s
  52. Channel(s)                  : 6 channels
  53. Channel layout              : L R C LFE Ls Rs
  54. Sampling rate               : 48.0 kHz
  55. Frame rate                  : 31.250 FPS (1536 SPF)
  56. Compression mode            : Lossy
  57. Stream size                 : 518 MiB (18%)
  58. Title                       : European Spanish
  59. Language                    : Spanish
  60. Service kind                : Complete Main
  61. Default                     : Yes
  62. Forced                      : No
  63.  
  64. Text
  65. ID                          : 3
  66. Format                      : UTF-8
  67. Codec ID                    : S_TEXT/UTF8
  68. Codec ID/Info               : UTF-8 Plain Text
  69. Duration                    : 1 h 46 min
  70. Bit rate                    : 69 b/s
  71. Count of elements           : 1538
  72. Stream size                 : 54.3 KiB (0%)
  73. Title                       : European Spanish
  74. Language                    : Spanish
  75. Default                     : No
  76. Forced                      : No
RAW Paste Data
We use cookies for various purposes including analytics. By continuing to use Pastebin, you agree to our use of cookies as described in the Cookies Policy. OK, I Understand
 
Top