SHARE
TWEET

Parasite Source

mhimranhossain97 Dec 3rd, 2019 109 Never
Not a member of Pastebin yet? Sign Up, it unlocks many cool features!
  1. General
  2. Unique ID                                : 17518055356321144553295779602774923872 (0xD2DDAD018FB92643E9B69A65D389A60)
  3. Complete name                            : /home/mh/Misc/NF/Parasite.2019.1080p.BluRay.Remux.AVC.Atmos-PmP.mkv
  4. Format                                   : Matroska
  5. Format version                           : Version 4 / Version 2
  6. File size                                : 31.1 GiB
  7. Duration                                 : 2 h 12 min
  8. Overall bit rate mode                    : Variable
  9. Overall bit rate                         : 33.7 Mb/s
  10. Encoded date                             : UTC 2019-11-29 05:36:46
  11. Writing application                      : mkvmerge v40.0.0 ('Old Town Road + Pony') 64-bit
  12. Writing library                          : libebml v1.3.9 + libmatroska v1.5.2
  13. Cover                                    : Yes
  14. Attachments                              : cover_land.jpg / small_cover.jpg / small_cover_land.jpg / cover.jpg
  15.  
  16. Video
  17. ID                                       : 1
  18. Format                                   : AVC
  19. Format/Info                              : Advanced Video Codec
  20. Format profile                           : High@L4.1
  21. Format settings                          : CABAC / 3 Ref Frames
  22. Format settings, CABAC                   : Yes
  23. Format settings, ReFrames                : 3 frames
  24. Codec ID                                 : V_MPEG4/ISO/AVC
  25. Duration                                 : 2 h 12 min
  26. Bit rate mode                            : Variable
  27. Bit rate                                 : 29.0 Mb/s
  28. Maximum bit rate                         : 31.0 Mb/s
  29. Width                                    : 1 920 pixels
  30. Height                                   : 1 080 pixels
  31. Display aspect ratio                     : 16:9
  32. Frame rate mode                          : Constant
  33. Frame rate                               : 23.976 (24000/1001) FPS
  34. Color space                              : YUV
  35. Chroma subsampling                       : 4:2:0
  36. Bit depth                                : 8 bits
  37. Scan type                                : Progressive
  38. Bits/(Pixel*Frame)                       : 0.583
  39. Stream size                              : 26.6 GiB (86%)
  40. Title                                    : MPEG-4 AVC Video / 28901 kbps / 1080p / 23.976 fps / 16:9 / High Profile 4.1
  41. Writing library                          : x264 core 146 r2538 121396c
  42. Encoding settings                        : cabac=1 / ref=4 / deblock=1:-1:-1 / analyse=0x3:0x133 / me=umh / subme=10 / psy=1 / psy_rd=1.00:0.15 / mixed_ref=1 / me_range=24 / chroma_me=1 / trellis=2 / 8x8dct=1 / cqm=0 / deadzone=21,11 / fast_pskip=1 / chroma_qp_offset=-3 / threads=48 / lookahead_threads=4 / sliced_threads=0 / slices=4 / nr=0 / decimate=1 / interlaced=0 / bluray_compat=1 / constrained_intra=0 / bframes=3 / b_pyramid=1 / b_adapt=2 / b_bias=0 / direct=3 / weightb=1 / open_gop=1 / weightp=1 / keyint=24 / keyint_min=1 / scenecut=40 / intra_refresh=0 / rc_lookahead=24 / rc=2pass / mbtree=1 / bitrate=29000 / ratetol=1.0 / qcomp=0.60 / qpmin=0 / qpmax=69 / qpstep=4 / cplxblur=20.0 / qblur=0.5 / vbv_maxrate=31000 / vbv_bufsize=30000 / nal_hrd=vbr / filler=0 / ip_ratio=1.40 / aq=1:1.00
  43. Language                                 : Korean
  44. Default                                  : Yes
  45. Forced                                   : No
  46. Color range                              : Limited
  47. Color primaries                          : BT.709
  48. Transfer characteristics                 : BT.709
  49. Matrix coefficients                      : BT.709
  50.  
  51. Audio #1
  52. ID                                       : 2
  53. Format                                   : TrueHD
  54. Format profile                           : TrueHD+Atmos / TrueHD
  55. Codec ID                                 : A_TRUEHD
  56. Duration                                 : 2 h 12 min
  57. Bit rate mode                            : Variable
  58. Bit rate                                 : 4 042 kb/s
  59. Maximum bit rate                         : 6 816 kb/s
  60. Channel(s)                               : Object Based / 8 channels
  61. Channel positions                        : Object Based / Front: L C R, Side: L R, Back: L R, LFE
  62. Sampling rate                            :  / 48.0 kHz
  63. Frame rate                               : 1 200.000 FPS (40 SPF)
  64. Compression mode                         : Lossless
  65. Stream size                              : 3.73 GiB (12%)
  66. Title                                    : Dolby TrueHD/Atmos Audio / 7.1 / 48 kHz /  4042 kbps / 24-bit
  67. Language                                 : Korean
  68. Default                                  : Yes
  69. Forced                                   : No
  70.  
  71. Audio #2
  72. ID                                       : 3
  73. Format                                   : AC-3
  74. Format/Info                              : Audio Coding 3
  75. Codec ID                                 : A_AC3
  76. Duration                                 : 2 h 12 min
  77. Bit rate mode                            : Constant
  78. Bit rate                                 : 640 kb/s
  79. Channel(s)                               : 6 channels
  80. Channel positions                        : Front: L C R, Side: L R, LFE
  81. Sampling rate                            : 48.0 kHz
  82. Frame rate                               : 31.250 FPS (1536 SPF)
  83. Bit depth                                : 16 bits
  84. Compression mode                         : Lossy
  85. Stream size                              : 604 MiB (2%)
  86. Title                                    : Compatibility Track / Dolby Digital Audio / 5.1-EX / 48 kHz / 640 kbps
  87. Language                                 : Korean
  88. Service kind                             : Complete Main
  89. Default                                  : No
  90. Forced                                   : No
  91.  
  92. Text #1
  93. ID                                       : 4
  94. Format                                   : PGS
  95. Codec ID                                 : S_HDMV/PGS
  96. Codec ID/Info                            : Picture based subtitle format used on BDs/HD-DVDs
  97. Duration                                 : 2 h 10 min
  98. Bit rate                                 : 26.8 kb/s
  99. Count of elements                        : 3548
  100. Stream size                              : 25.0 MiB (0%)
  101. Language                                 : French
  102. Default                                  : No
  103. Forced                                   : No
  104.  
  105. Text #2
  106. ID                                       : 5
  107. Format                                   : PGS
  108. Codec ID                                 : S_HDMV/PGS
  109. Codec ID/Info                            : Picture based subtitle format used on BDs/HD-DVDs
  110. Duration                                 : 2 h 11 min
  111. Bit rate                                 : 37.1 kb/s
  112. Count of elements                        : 5100
  113. Stream size                              : 34.9 MiB (0%)
  114. Title                                    : SDH
  115. Language                                 : French
  116. Default                                  : No
  117. Forced                                   : No
  118.  
  119. Text #3
  120. ID                                       : 6
  121. Format                                   : UTF-8
  122. Codec ID                                 : S_TEXT/UTF8
  123. Codec ID/Info                            : UTF-8 Plain Text
  124. Duration                                 : 2 h 5 min
  125. Bit rate                                 : 53 b/s
  126. Count of elements                        : 1647
  127. Stream size                              : 49.3 KiB (0%)
  128. Language                                 : English
  129. Default                                  : No
  130. Forced                                   : No
  131.  
  132. Menu
  133. 00:00:00.000                             : en:Chapter 1
  134. 00:05:44.802                             : en:Chapter 2
  135. 00:12:16.610                             : en:Chapter 3
  136. 00:20:35.484                             : en:Chapter 4
  137. 00:29:21.926                             : en:Chapter 5
  138. 00:37:05.348                             : en:Chapter 6
  139. 00:46:19.943                             : en:Chapter 7
  140. 00:53:52.979                             : en:Chapter 8
  141. 01:02:55.646                             : en:Chapter 9
  142. 01:12:10.242                             : en:Chapter 10
  143. 01:23:25.834                             : en:Chapter 11
  144. 01:32:19.659                             : en:Chapter 12
  145. 01:41:22.284                             : en:Chapter 13
  146. 01:48:21.912                             : en:Chapter 14
  147. 01:56:07.502                             : en:Chapter 15
  148. 02:07:06.744                             : en:Chapter 16
RAW Paste Data
We use cookies for various purposes including analytics. By continuing to use Pastebin, you agree to our use of cookies as described in the Cookies Policy. OK, I Understand
Top