SHARE
TWEET

Untitled

a guest May 4th, 2019 38 Never
Not a member of Pastebin yet? Sign Up, it unlocks many cool features!
  1. General
  2. Unique ID                                : 244040874428197439686062345140701263133 (0xB7989011CC34DD965218418DD450751D)
  3. Complete name                            : [torrenter69] Saekano -How to Raise a Boring Girlfriend- S00E00 - Fan Service of Love and Youth [1080p x264] [CR-DL].mkv
  4. Format                                   : Matroska
  5. Format version                           : Version 4
  6. File size                                : 344 MiB
  7. Duration                                 : 22 min 50 s
  8. Overall bit rate mode                    : Variable
  9. Overall bit rate                         : 2 107 kb/s
  10. Writing application                      : Lavf58.27.103
  11. Writing library                          : Lavf58.27.103
  12. ErrorDetectionType                       : Per level 1
  13.  
  14. Video
  15. ID                                       : 1
  16. Format                                   : AVC
  17. Format/Info                              : Advanced Video Codec
  18. Format profile                           : High@L4
  19. Format settings                          : CABAC / 1 Ref Frames
  20. Format settings, CABAC                   : Yes
  21. Format settings, ReFrames                : 1 frame
  22. Codec ID                                 : V_MPEG4/ISO/AVC
  23. Duration                                 : 22 min 49 s
  24. Bit rate mode                            : Variable
  25. Bit rate                                 : 1 953 kb/s
  26. Maximum bit rate                         : 6 000 kb/s
  27. Width                                    : 1 920 pixels
  28. Height                                   : 1 080 pixels
  29. Display aspect ratio                     : 16:9
  30. Frame rate mode                          : Constant
  31. Frame rate                               : 23.976 (24000/1001) FPS
  32. Color space                              : YUV
  33. Chroma subsampling                       : 4:2:0
  34. Bit depth                                : 8 bits
  35. Scan type                                : Progressive
  36. Bits/(Pixel*Frame)                       : 0.039
  37. Stream size                              : 319 MiB (93%)
  38. Writing library                          : Lavc58.52.100 h264_nvenc
  39. Default                                  : Yes
  40. Forced                                   : No
  41.  
  42. Audio
  43. ID                                       : 2
  44. Format                                   : Vorbis
  45. Format settings, Floor                   : 1
  46. Codec ID                                 : A_VORBIS
  47. Duration                                 : 22 min 50 s
  48. Bit rate mode                            : Variable
  49. Bit rate                                 : 112 kb/s
  50. Channel(s)                               : 2 channels
  51. Sampling rate                            : 44.1 kHz
  52. Compression mode                         : Lossy
  53. Delay relative to video                  : -83 ms
  54. Stream size                              : 18.3 MiB (5%)
  55. Writing application                      : Lavc58.52.100
  56. Writing library                          : libVorbis (Now 100% fewer shells) (20180316 (Now 100% fewer shells))
  57. Default                                  : Yes
  58. Forced                                   : No
  59.  
  60. Text #1
  61. ID                                       : 3
  62. Format                                   : ASS
  63. Codec ID                                 : S_TEXT/ASS
  64. Codec ID/Info                            : Advanced Sub Station Alpha
  65. Duration                                 : 21 min 19 s
  66. Compression mode                         : Lossless
  67. Language                                 : English
  68. Default                                  : No
  69. Forced                                   : No
  70.  
  71. Text #2
  72. ID                                       : 4
  73. Format                                   : ASS
  74. Codec ID                                 : S_TEXT/ASS
  75. Codec ID/Info                            : Advanced Sub Station Alpha
  76. Duration                                 : 21 min 18 s
  77. Compression mode                         : Lossless
  78. Language                                 : Italian
  79. Default                                  : No
  80. Forced                                   : No
  81.  
  82. Text #3
  83. ID                                       : 5
  84. Format                                   : ASS
  85. Codec ID                                 : S_TEXT/ASS
  86. Codec ID/Info                            : Advanced Sub Station Alpha
  87. Duration                                 : 21 min 18 s
  88. Compression mode                         : Lossless
  89. Language                                 : French
  90. Default                                  : No
  91. Forced                                   : No
  92.  
  93. Text #4
  94. ID                                       : 6
  95. Format                                   : ASS
  96. Codec ID                                 : S_TEXT/ASS
  97. Codec ID/Info                            : Advanced Sub Station Alpha
  98. Duration                                 : 21 min 19 s
  99. Compression mode                         : Lossless
  100. Language                                 : Portuguese
  101. Default                                  : No
  102. Forced                                   : No
  103.  
  104. Text #5
  105. ID                                       : 7
  106. Format                                   : ASS
  107. Codec ID                                 : S_TEXT/ASS
  108. Codec ID/Info                            : Advanced Sub Station Alpha
  109. Duration                                 : 21 min 18 s
  110. Compression mode                         : Lossless
  111. Language                                 : Spanish
  112. Default                                  : No
  113. Forced                                   : No
  114.  
  115. Text #6
  116. ID                                       : 8
  117. Format                                   : ASS
  118. Codec ID                                 : S_TEXT/ASS
  119. Codec ID/Info                            : Advanced Sub Station Alpha
  120. Duration                                 : 21 min 19 s
  121. Compression mode                         : Lossless
  122. Language                                 : German
  123. Default                                  : No
  124. Forced                                   : No
  125.  
  126. Text #7
  127. ID                                       : 9
  128. Format                                   : ASS
  129. Codec ID                                 : S_TEXT/ASS
  130. Codec ID/Info                            : Advanced Sub Station Alpha
  131. Duration                                 : 21 min 18 s
  132. Compression mode                         : Lossless
  133. Language                                 : Spanish
  134. Default                                  : No
  135. Forced                                   : No
RAW Paste Data
We use cookies for various purposes including analytics. By continuing to use Pastebin, you agree to our use of cookies as described in the Cookies Policy. OK, I Understand
Not a member of Pastebin yet?
Sign Up, it unlocks many cool features!
 
Top