GrabHD

Untitled

Feb 20th, 2020
95
Never
Not a member of Pastebin yet? Sign Up, it unlocks many cool features!
  1. Общее
  2. Уникальный идентификатор : 321107744741368954262519086772680572094 (0xF1931A230ADED2A08B0170D34DD2BCBE)
  3. Полное имя : Soldatik.2019.WEB-DLRip.AVC.mkv
  4. Формат : Matroska
  5. Версия формата : Version 4
  6. Размер файла : 1,46 Гбайт
  7. Продолжительность : 1 ч. 26 м.
  8. Общий поток : 2418 Кбит/сек
  9. Название фильма : Солдатик (2018)
  10. Дата кодирования : UTC 2020-02-20 19:15:28
  11. Программа кодирования : mkvmerge v41.0.0 ('Smarra') 64-bit
  12. Библиотека кодирования : libebml v1.3.9 + libmatroska v1.5.2
  13. Обложка : Yes
  14. Attachments : cover.jpg
  15.  
  16. Видео
  17. Идентификатор : 1
  18. Формат : AVC
  19. Формат/Информация : Advanced Video Codec
  20. Профиль формата : High@L4.1
  21. Настройки формата : CABAC / 12 Ref Frames
  22. Параметр CABAC формата : Да
  23. Параметр RefFrames формата : 12 кадров
  24. Идентификатор кодека : V_MPEG4/ISO/AVC
  25. Продолжительность : 1 ч. 26 м.
  26. Битрейт : 2033 Кбит/сек
  27. Ширина : 1024 пикселя
  28. Высота : 554 пикселя
  29. Соотношение сторон : 1,85:1
  30. Режим частоты кадров : Постоянный
  31. Частота кадров : 24,000 кадра/сек
  32. Цветовое пространство : YUV
  33. Субдискретизация насыщенности : 4:2:0
  34. Битовая глубина : 8 бит
  35. Тип развёртки : Прогрессивная
  36. Бит/(Пиксели*Кадры) : 0.149
  37. Размер потока : 1,23 Гбайт (84%)
  38. Заголовок : #stillet
  39. Библиотека кодирования : x264 core 152 r2851bm ba24899
  40. Настройки программы : cabac=1 / ref=12 / deblock=1:-3:-3 / analyse=0x3:0x113 / me=umh / subme=11 / psy=1 / psy_rd=1.00:0.15 / mixed_ref=1 / me_range=32 / chroma_me=1 / trellis=2 / 8x8dct=1 / cqm=0 / deadzone=21,11 / fast_pskip=0 / chroma_qp_offset=-3 / threads=8 / lookahead_threads=3 / sliced_threads=0 / nr=0 / decimate=0 / interlaced=0 / bluray_compat=0 / constrained_intra=0 / bframes=11 / b_pyramid=2 / b_adapt=2 / b_bias=0 / direct=3 / weightb=1 / open_gop=0 / weightp=2 / keyint=240 / keyint_min=24 / scenecut=40 / intra_refresh=0 / rc=2pass / mbtree=0 / bitrate=2033 / ratetol=1.0 / qcomp=0.60 / qpmin=0 / qpmax=69 / qpstep=4 / cplxblur=20.0 / qblur=0.5 / ip_ratio=1.40 / pb_ratio=1.30 / aq=1:1.00
  41. Язык : Russian
  42. Default : Да
  43. Forced : Нет
  44.  
  45. Аудио
  46. Идентификатор : 2
  47. Формат : AC-3
  48. Формат/Информация : Audio Coding 3
  49. Коммерческое название : Dolby Digital
  50. Идентификатор кодека : A_AC3
  51. Продолжительность : 1 ч. 26 м.
  52. Вид битрейта : Постоянный
  53. Битрейт : 384 Кбит/сек
  54. Каналы : 6 каналов
  55. ChannelLayout : L R C LFE Ls Rs
  56. Частота : 48,0 КГц
  57. Частота кадров : 31,250 кадров/сек (1536 SPF)
  58. Метод сжатия : С потерями
  59. Размер потока : 237 Мбайт (16%)
  60. Заголовок : iTunes
  61. Язык : Russian
  62. Default : Да
  63. Forced : Нет
  64.  
  65. Меню
  66. 00:00:00.000 : en:Глава 1
  67. 00:07:51.541 : en:Глава 2
  68. 00:14:16.582 : en:Глава 3
  69. 00:21:31.873 : en:Глава 4
  70. 00:27:52.998 : en:Глава 5
  71. 00:33:29.331 : en:Глава 6
  72. 00:39:58.622 : en:Глава 7
  73. 00:46:04.247 : en:Глава 8
  74. 00:52:52.372 : en:Глава 9
  75. 01:00:00.580 : en:Глава 10
  76. 01:07:50.038 : en:Глава 11
  77. 01:15:45.829 : en:Глава 12
RAW Paste Data