SHARE
TWEET

Untitled

a guest Jan 11th, 2017 64 Never
Not a member of Pastebin yet? Sign Up, it unlocks many cool features!
  1. ffmpeg version 2.8.10-0ubuntu0.16.04.1 Copyright (c) 2000-2016 the FFmpeg developers
  2.   built with gcc 5.4.0 (Ubuntu 5.4.0-6ubuntu1~16.04.4) 20160609
  3.   configuration: --prefix=/usr --extra-version=0ubuntu0.16.04.1 --build-suffix=-ffmpeg --toolchain=hardened --libdir=/usr/lib/x86_64-linux-gnu --incdir=/usr/include/x86_64-linux-gnu --cc=cc --cxx=g++ --enable-gpl --enable-shared --disable-stripping --disable-decoder=libopenjpeg --disable-decoder=libschroedinger --enable-avresample --enable-avisynth --enable-gnutls --enable-ladspa --enable-libass --enable-libbluray --enable-libbs2b --enable-libcaca --enable-libcdio --enable-libflite --enable-libfontconfig --enable-libfreetype --enable-libfribidi --enable-libgme --enable-libgsm --enable-libmodplug --enable-libmp3lame --enable-libopenjpeg --enable-libopus --enable-libpulse --enable-librtmp --enable-libschroedinger --enable-libshine --enable-libsnappy --enable-libsoxr --enable-libspeex --enable-libssh --enable-libtheora --enable-libtwolame --enable-libvorbis --enable-libvpx --enable-libwavpack --enable-libwebp --enable-libx265 --enable-libxvid --enable-libzvbi --enable-openal --enable-opengl --enable-x11grab --enable-libdc1394 --enable-libiec61883 --enable-libzmq --enable-frei0r --enable-libx264 --enable-libopencv
  4.   libavutil      54. 31.100 / 54. 31.100
  5.   libavcodec     56. 60.100 / 56. 60.100
  6.   libavformat    56. 40.101 / 56. 40.101
  7.   libavdevice    56.  4.100 / 56.  4.100
  8.   libavfilter     5. 40.101 /  5. 40.101
  9.   libavresample   2.  1.  0 /  2.  1.  0
  10.   libswscale      3.  1.101 /  3.  1.101
  11.   libswresample   1.  2.101 /  1.  2.101
  12.   libpostproc    53.  3.100 / 53.  3.100
  13. [mjpeg @ 0x2348380] Changeing bps to 8
  14. Input #0, image2, from './pgcamflea/tmp%d.jpg':
  15.   Duration: 00:04:32.40, start: 0.000000, bitrate: N/A
  16.     Stream #0:0: Video: mjpeg, yuvj420p(pc, bt470bg/unknown/unknown), 640x480 [SAR 1:1 DAR 4:3], 25 fps, 25 tbr, 25 tbn, 25 tbc
  17. No pixel format specified, yuvj420p for H.264 encoding chosen.
  18. Use -pix_fmt yuv420p for compatibility with outdated media players.
  19. [libx264 @ 0x2348f00] using SAR=1/1
  20. [libx264 @ 0x2348f00] using cpu capabilities: MMX2 SSE2Fast SSSE3 SSE4.2 AVX FMA3 AVX2 LZCNT BMI2
  21. [libx264 @ 0x2348f00] profile High, level 3.0
  22. [libx264 @ 0x2348f00] 264 - core 148 r2643 5c65704 - H.264/MPEG-4 AVC codec - Copyleft 2003-2015 - http://www.videolan.org/x264.html - options: cabac=1 ref=3 deblock=1:0:0 analyse=0x3:0x113 me=hex subme=7 psy=1 psy_rd=1.00:0.00 mixed_ref=1 me_range=16 chroma_me=1 trellis=1 8x8dct=1 cqm=0 deadzone=21,11 fast_pskip=1 chroma_qp_offset=-2 threads=12 lookahead_threads=2 sliced_threads=0 nr=0 decimate=1 interlaced=0 bluray_compat=0 constrained_intra=0 bframes=3 b_pyramid=2 b_adapt=1 b_bias=0 direct=1 weightb=1 open_gop=0 weightp=2 keyint=250 keyint_min=25 scenecut=40 intra_refresh=0 rc_lookahead=40 rc=crf mbtree=1 crf=23.0 qcomp=0.60 qpmin=0 qpmax=69 qpstep=4 ip_ratio=1.40 aq=1:1.00
  23. Output #0, mp4, to './pgcamflea.mp4':
  24.   Metadata:
  25.     encoder         : Lavf56.40.101
  26.     Stream #0:0: Video: h264 (libx264) ([33][0][0][0] / 0x0021), yuvj420p(pc), 640x480 [SAR 1:1 DAR 4:3], q=-1--1, 25 fps, 12800 tbn, 25 tbc
  27.     Metadata:
  28.       encoder         : Lavc56.60.100 libx264
  29. Stream mapping:
  30.   Stream #0:0 -> #0:0 (mjpeg (native) -> h264 (libx264))
  31. Press [q] to stop, [?] for help
  32. frame=  143 fps=0.0 q=28.0 size=     923kB time=00:00:03.40 bitrate=2224.4kbits/s    
  33. frame=  261 fps=257 q=28.0 size=    2138kB time=00:00:08.12 bitrate=2157.4kbits/s    
  34. frame=  374 fps=247 q=28.0 size=    3343kB time=00:00:12.64 bitrate=2166.3kbits/s    
  35. frame=  486 fps=240 q=28.0 size=    4519kB time=00:00:17.12 bitrate=2162.2kbits/s    
  36. frame=  596 fps=235 q=28.0 size=    5724kB time=00:00:21.52 bitrate=2178.9kbits/s    
  37. frame=  711 fps=233 q=28.0 size=    6931kB time=00:00:26.12 bitrate=2173.8kbits/s    
  38. frame=  821 fps=231 q=28.0 size=    8112kB time=00:00:30.52 bitrate=2177.3kbits/s    
  39. frame=  935 fps=230 q=28.0 size=    9307kB time=00:00:35.08 bitrate=2173.5kbits/s    
  40. frame= 1040 fps=228 q=28.0 size=   10473kB time=00:00:39.28 bitrate=2184.1kbits/s    
  41. frame= 1152 fps=227 q=28.0 size=   11652kB time=00:00:43.76 bitrate=2181.3kbits/s    
  42. frame= 1262 fps=226 q=28.0 size=   12844kB time=00:00:48.16 bitrate=2184.7kbits/s    
  43. frame= 1370 fps=225 q=28.0 size=   13979kB time=00:00:52.48 bitrate=2182.1kbits/s    
  44. frame= 1440 fps=219 q=28.0 size=   15524kB time=00:00:55.28 bitrate=2300.5kbits/s    
  45. frame= 1510 fps=213 q=28.0 size=   16980kB time=00:00:58.08 bitrate=2394.9kbits/s    
  46. frame= 1576 fps=208 q=28.0 size=   18658kB time=00:01:00.72 bitrate=2517.3kbits/s    
  47. frame= 1634 fps=202 q=28.0 size=   20378kB time=00:01:03.04 bitrate=2648.1kbits/s    
  48. frame= 1688 fps=197 q=28.0 size=   22235kB time=00:01:05.20 bitrate=2793.8kbits/s    
  49. frame= 1740 fps=191 q=28.0 size=   24064kB time=00:01:07.28 bitrate=2930.0kbits/s    
  50. frame= 1802 fps=188 q=28.0 size=   26044kB time=00:01:09.76 bitrate=3058.4kbits/s    
  51. frame= 1889 fps=187 q=28.0 size=   27692kB time=00:01:13.24 bitrate=3097.4kbits/s    
  52. frame= 1998 fps=188 q=28.0 size=   28732kB time=00:01:17.60 bitrate=3033.1kbits/s    
  53. frame= 2379 fps=214 q=28.0 size=   29207kB time=00:01:32.84 bitrate=2577.1kbits/s    
  54. frame= 2853 fps=246 q=28.0 size=   29638kB time=00:01:51.80 bitrate=2171.7kbits/s    
  55. frame= 3306 fps=273 q=28.0 size=   30054kB time=00:02:09.92 bitrate=1895.1kbits/s    
  56. frame= 3766 fps=299 q=28.0 size=   30480kB time=00:02:28.32 bitrate=1683.4kbits/s    
  57. frame= 4230 fps=323 q=28.0 size=   30913kB time=00:02:46.88 bitrate=1517.5kbits/s    
  58. frame= 4469 fps=328 q=28.0 size=   31851kB time=00:02:56.44 bitrate=1478.8kbits/s    
  59. frame= 4652 fps=330 q=28.0 size=   32996kB time=00:03:03.76 bitrate=1471.0kbits/s    
  60. frame= 4842 fps=331 q=28.0 size=   33974kB time=00:03:11.36 bitrate=1454.4kbits/s    
  61. frame= 4916 fps=325 q=28.0 size=   35889kB time=00:03:14.32 bitrate=1513.0kbits/s    
  62. frame= 5008 fps=321 q=28.0 size=   37687kB time=00:03:18.00 bitrate=1559.2kbits/s    
  63. frame= 5115 fps=317 q=28.0 size=   39362kB time=00:03:22.28 bitrate=1594.1kbits/s    
  64. frame= 5256 fps=316 q=28.0 size=   40436kB time=00:03:27.92 bitrate=1593.2kbits/s    
  65. frame= 5323 fps=311 q=28.0 size=   42177kB time=00:03:30.60 bitrate=1640.6kbits/s    
  66. frame= 5425 fps=308 q=28.0 size=   42995kB time=00:03:34.68 bitrate=1640.6kbits/s    
  67. frame= 5550 fps=306 q=28.0 size=   44288kB time=00:03:39.68 bitrate=1651.5kbits/s    
  68. frame= 5648 fps=303 q=28.0 size=   45516kB time=00:03:43.60 bitrate=1667.5kbits/s    
  69. frame= 5731 fps=299 q=28.0 size=   46415kB time=00:03:46.92 bitrate=1675.6kbits/s    
  70. frame= 5823 fps=296 q=28.0 size=   47760kB time=00:03:50.60 bitrate=1696.6kbits/s    
  71. frame= 5914 fps=293 q=28.0 size=   49290kB time=00:03:54.24 bitrate=1723.8kbits/s    
  72. frame= 6002 fps=291 q=28.0 size=   50582kB time=00:03:57.76 bitrate=1742.8kbits/s    
  73. frame= 6103 fps=288 q=28.0 size=   51353kB time=00:04:01.80 bitrate=1739.8kbits/s    
  74. frame= 6203 fps=286 q=28.0 size=   52137kB time=00:04:05.80 bitrate=1737.6kbits/s    
  75. frame= 6286 fps=283 q=28.0 size=   52905kB time=00:04:09.12 bitrate=1739.7kbits/s    
  76. frame= 6373 fps=281 q=28.0 size=   53770kB time=00:04:12.60 bitrate=1743.8kbits/s    
  77. frame= 6440 fps=278 q=28.0 size=   55167kB time=00:04:15.28 bitrate=1770.3kbits/s    
  78. frame= 6521 fps=275 q=28.0 size=   56417kB time=00:04:18.52 bitrate=1787.8kbits/s    
  79. frame= 6613 fps=273 q=28.0 size=   57568kB time=00:04:22.20 bitrate=1798.6kbits/s    
  80. frame= 6695 fps=271 q=28.0 size=   58707kB time=00:04:25.48 bitrate=1811.6kbits/s    
  81. frame= 6736 fps=267 q=28.0 size=   59465kB time=00:04:27.12 bitrate=1823.7kbits/s    
  82. frame= 6810 fps=265 q=-1.0 Lsize=   60042kB time=00:04:32.32 bitrate=1806.2kbits/s    
  83. video:59977kB audio:0kB subtitle:0kB other streams:0kB global headers:0kB muxing overhead: 0.107503%
  84. [libx264 @ 0x2348f00] frame I:72    Avg QP:20.70  size: 20431
  85. [libx264 @ 0x2348f00] frame P:4127  Avg QP:26.92  size: 12256
  86. [libx264 @ 0x2348f00] frame B:2611  Avg QP:29.55  size:  3587
  87. [libx264 @ 0x2348f00] consecutive B-frames: 33.7% 42.4%  9.6% 14.3%
  88. [libx264 @ 0x2348f00] mb I  I16..4: 11.2% 78.8% 10.0%
  89. [libx264 @ 0x2348f00] mb P  I16..4:  1.1% 12.8%  3.4%  P16..4: 18.7% 11.9%  6.8%  0.0%  0.0%    skip:45.3%
  90. [libx264 @ 0x2348f00] mb B  I16..4:  0.1%  0.7%  0.1%  B16..8: 13.6%  3.7%  1.3%  direct: 6.2%  skip:74.3%  L0:49.5% L1:35.2% BI:15.3%
  91. [libx264 @ 0x2348f00] 8x8 transform intra:74.8% inter:38.1%
  92. [libx264 @ 0x2348f00] coded y,uvDC,uvAC intra: 70.4% 77.3% 70.4% inter: 22.1% 26.4% 16.5%
  93. [libx264 @ 0x2348f00] i16 v,h,dc,p: 34% 15%  9% 43%
  94. [libx264 @ 0x2348f00] i8 v,h,dc,ddl,ddr,vr,hd,vl,hu: 15%  9% 42%  5%  6%  5%  6%  5%  6%
  95. [libx264 @ 0x2348f00] i4 v,h,dc,ddl,ddr,vr,hd,vl,hu: 18% 11% 24%  9%  8%  8%  7%  7%  7%
  96. [libx264 @ 0x2348f00] i8c dc,h,v,p: 62% 13% 11% 15%
  97. [libx264 @ 0x2348f00] Weighted P-Frames: Y:17.3% UV:13.8%
  98. [libx264 @ 0x2348f00] ref P L0: 47.0% 14.5% 21.3% 14.4%  2.8%
  99. [libx264 @ 0x2348f00] ref B L0: 59.3% 39.0%  1.6%
  100. [libx264 @ 0x2348f00] ref B L1: 97.3%  2.7%
  101. [libx264 @ 0x2348f00] kb/s:1803.70
RAW Paste Data
We use cookies for various purposes including analytics. By continuing to use Pastebin, you agree to our use of cookies as described in the Cookies Policy. OK, I Understand
 
Top