SHARE
TWEET

Fighting with My Family BluRay 720p

dirtyharrys Jun 4th, 2019 (edited) 67 Never
Not a member of Pastebin yet? Sign Up, it unlocks many cool features!
  1. General
  2. Unique ID                   : 319026407161533801008074727017775626510 (0xF00240457C552501568DEDFC5063F90E)
  3. Complete name               : E:\QlJSRmlnaHRpbmd3aXRoTXlGYW1pbHlEVUFM.mkv
  4. Format                      : Matroska
  5. Format version              : Version 4
  6. File size                   : 1.67 GiB
  7. Duration                    : 1 h 48 min
  8. Overall bit rate            : 2 206 kb/s
  9. Movie name                  : Fighting with My Family BR-RIP / Fighting with My Family BR-RIP
  10. Encoded date                : UTC 2019-07-20 07:17:27
  11. Writing application         : mkvmerge v30.1.0 ('Forever And More') 32-bit
  12. Writing library             : libebml v1.3.6 + libmatroska v1.4.9
  13. Copyright                   : Movies HDs 2019
  14. ARTIST                      : HarshLearner
  15.  
  16. Video
  17. ID                          : 1
  18. Format                      : AVC
  19. Format/Info                 : Advanced Video Codec
  20. Format profile              : High@L4.1
  21. Format settings             : CABAC / 4 Ref Frames
  22. Format settings, CABAC      : Yes
  23. Format settings, ReFrames   : 4 frames
  24. Codec ID                    : V_MPEG4/ISO/AVC
  25. Duration                    : 1 h 48 min
  26. Bit rate                    : 1 500 kb/s
  27. Width                       : 1 280 pixels
  28. Height                      : 534 pixels
  29. Display aspect ratio        : 2.40:1
  30. Original display aspect rat : 2.40:1
  31. Frame rate mode             : Constant
  32. Frame rate                  : 23.976 (23976/1000) FPS
  33. Color space                 : YUV
  34. Chroma subsampling          : 4:2:0
  35. Bit depth                   : 8 bits
  36. Scan type                   : Progressive
  37. Bits/(Pixel*Frame)          : 0.092
  38. Stream size                 : 1.14 GiB (68%)
  39. Title                       : Fighting with My Family
  40. Writing library             : x264 core 152 r2851M ba24899
  41. Default                     : Yes
  42. Forced                      : No
  43.  
  44. Audio #1
  45. ID                          : 2
  46. Format                      : AC-3
  47. Format/Info                 : Audio Coding 3
  48. Commercial name             : Dolby Digital
  49. Codec ID                    : A_AC3
  50. Duration                    : 1 h 48 min
  51. Bit rate mode               : Constant
  52. Bit rate                    : 448 kb/s
  53. Channel(s)                  : 6 channels
  54. Channel layout              : L R C LFE Ls Rs
  55. Sampling rate               : 48.0 kHz
  56. Frame rate                  : 31.250 FPS (1536 SPF)
  57. Bit depth                   : 16 bits
  58. Compression mode            : Lossy
  59. Stream size                 : 348 MiB (20%)
  60. Language                    : English
  61. Service kind                : Complete Main
  62. Default                     : No
  63. Forced                      : No
  64.  
  65. Audio #2
  66. ID                          : 3
  67. Format                      : AC-3
  68. Format/Info                 : Audio Coding 3
  69. Commercial name             : Dolby Digital
  70. Codec ID                    : A_AC3
  71. Duration                    : 1 h 48 min
  72. Bit rate mode               : Constant
  73. Bit rate                    : 256 kb/s
  74. Channel(s)                  : 2 channels
  75. Channel layout              : L R
  76. Sampling rate               : 48.0 kHz
  77. Frame rate                  : 31.250 FPS (1536 SPF)
  78. Bit depth                   : 16 bits
  79. Compression mode            : Lossy
  80. Stream size                 : 199 MiB (12%)
  81. Language                    : Spanish
  82. Service kind                : Complete Main
  83. Default                     : Yes
  84. Forced                      : Yes
  85.  
  86. Text #1
  87. ID                          : 4
  88. Format                      : UTF-8
  89. Codec ID                    : S_TEXT/UTF8
  90. Codec ID/Info               : UTF-8 Plain Text
  91. Duration                    : 1 h 44 min
  92. Bit rate                    : 73 b/s
  93. Count of elements           : 1887
  94. Stream size                 : 56.2 KiB (0%)
  95. Language                    : English
  96. Default                     : No
  97. Forced                      : No
  98.  
  99. Text #2
  100. ID                          : 5
  101. Format                      : UTF-8
  102. Codec ID                    : S_TEXT/UTF8
  103. Codec ID/Info               : UTF-8 Plain Text
  104. Duration                    : 1 h 44 min
  105. Bit rate                    : 73 b/s
  106. Count of elements           : 1827
  107. Stream size                 : 56.7 KiB (0%)
  108. Language                    : Spanish
  109. Default                     : Yes
  110. Forced                      : Yes
  111.  
  112. Text #3
  113. ID                          : 6
  114. Format                      : UTF-8
  115. Codec ID                    : S_TEXT/UTF8
  116. Codec ID/Info               : UTF-8 Plain Text
  117. Duration                    : 1 h 35 min
  118. Bit rate                    : 0 b/s
  119. Count of elements           : 21
  120. Stream size                 : 470 Bytes (0%)
  121. Language                    : Spanish
  122. Default                     : No
  123. Forced                      : No
  124.  
  125. Menu
  126. 00:00:00.000                : :Chapter 01
  127. 00:05:10.268                : :Chapter 02
  128. 00:09:46.252                : :Chapter 03
  129. 00:14:29.035                : :Chapter 04
  130. 00:20:54.628                : :Chapter 05
  131. 00:24:54.827                : :Chapter 06
  132. 00:29:09.331                : :Chapter 07
  133. 00:35:18.033                : :Chapter 08
  134. 00:40:51.991                : :Chapter 09
  135. 00:46:06.722                : :Chapter 10
  136. 00:50:55.678                : :Chapter 11
  137. 00:55:50.597                : :Chapter 12
  138. 01:00:43.807                : :Chapter 13
  139. 01:04:15.477                : :Chapter 14
  140. 01:11:51.182                : :Chapter 15
  141. 01:17:03.827                : :Chapter 16
  142. 01:22:03.460                : :Chapter 17
  143. 01:27:34.124                : :Chapter 18
  144. 01:35:04.407                : :Chapter 19
  145. 01:44:07.741                : :Chapter 20
RAW Paste Data
We use cookies for various purposes including analytics. By continuing to use Pastebin, you agree to our use of cookies as described in the Cookies Policy. OK, I Understand
 
Top