SHARE
TWEET

Untitled

decimate1405 Feb 15th, 2019 68 Never
Not a member of Pastebin yet? Sign Up, it unlocks many cool features!
  1. General
  2. Unique ID                                : 113205088775496893748339257542416495957 (0x552A81CCE9BB65F0B2187378EB6B7555)
  3. Complete name                            : Backtrace.2018.REPACK.1080p.BluRay.REMUX.AVC.DTS-HD.MA.5.1-EPSiLON.mkv
  4. Format                                   : Matroska
  5. Format version                           : Version 4
  6. File size                                : 15.3 GiB
  7. Duration                                 : 1 h 27 min
  8. Overall bit rate mode                    : Variable
  9. Overall bit rate                         : 25.1 Mb/s
  10. Movie name                               : Backtrace (2018)
  11. Encoded date                             : UTC 2019-02-15 19:28:25
  12. Writing application                      : mkvmerge v31.0.0 ('Dolores In A Shoestand') 64-bit
  13. Writing library                          : libebml v1.3.6 + libmatroska v1.4.9
  14. IMDB                                     : tt3588588
  15. TMDB                                     : movie/512412
  16.  
  17. Video
  18. ID                                       : 1
  19. Format                                   : AVC
  20. Format/Info                              : Advanced Video Codec
  21. Format profile                           : High@L4.1
  22. Format settings                          : CABAC / 4 Ref Frames
  23. Format settings, CABAC                   : Yes
  24. Format settings, ReFrames                : 4 frames
  25. Codec ID                                 : V_MPEG4/ISO/AVC
  26. Duration                                 : 1 h 27 min
  27. Bit rate mode                            : Variable
  28. Bit rate                                 : 21.1 Mb/s
  29. Maximum bit rate                         : 37.0 Mb/s
  30. Width                                    : 1 920 pixels
  31. Height                                   : 1 080 pixels
  32. Display aspect ratio                     : 16:9
  33. Frame rate mode                          : Constant
  34. Frame rate                               : 23.976 (24000/1001) FPS
  35. Color space                              : YUV
  36. Chroma subsampling                       : 4:2:0
  37. Bit depth                                : 8 bits
  38. Scan type                                : Progressive
  39. Bits/(Pixel*Frame)                       : 0.424
  40. Stream size                              : 12.9 GiB (84%)
  41. Title                                    : MPEG-4 AVC Video / 21129 kbps / 1080p / 23.976 fps / 16:9 / High Profile 4.1
  42. Language                                 : English
  43. Default                                  : Yes
  44. Forced                                   : No
  45.  
  46. Audio
  47. ID                                       : 2
  48. Format                                   : DTS XLL
  49. Format/Info                              : Digital Theater Systems
  50. Commercial name                          : DTS-HD Master Audio
  51. Codec ID                                 : A_DTS
  52. Duration                                 : 1 h 27 min
  53. Bit rate mode                            : Variable
  54. Bit rate                                 : 3 963 kb/s
  55. Channel(s)                               : 6 channels
  56. Channel layout                           : C L R Ls Rs LFE
  57. Sampling rate                            : 48.0 kHz
  58. Frame rate                               : 93.750 FPS (512 SPF)
  59. Bit depth                                : 24 bits
  60. Compression mode                         : Lossless
  61. Stream size                              : 2.42 GiB (16%)
  62. Title                                    : DTS-HD Master Audio / 5.1 / 48 kHz /  3963 kbps / 24-bit
  63. Language                                 : English
  64. Default                                  : Yes
  65. Forced                                   : No
  66.  
  67. Text #1
  68. ID                                       : 3
  69. Format                                   : PGS
  70. Codec ID                                 : S_HDMV/PGS
  71. Codec ID/Info                            : Picture based subtitle format used on BDs/HD-DVDs
  72. Duration                                 : 1 h 20 min
  73. Bit rate                                 : 34.0 kb/s
  74. Count of elements                        : 1855
  75. Stream size                              : 19.6 MiB (0%)
  76. Title                                    : SDH
  77. Language                                 : English
  78. Default                                  : No
  79. Forced                                   : No
  80.  
  81. Text #2
  82. ID                                       : 4
  83. Format                                   : PGS
  84. Codec ID                                 : S_HDMV/PGS
  85. Codec ID/Info                            : Picture based subtitle format used on BDs/HD-DVDs
  86. Duration                                 : 1 h 22 min
  87. Bit rate                                 : 30.3 kb/s
  88. Count of elements                        : 1743
  89. Stream size                              : 17.8 MiB (0%)
  90. Title                                    : Latin American
  91. Language                                 : Spanish
  92. Default                                  : No
  93. Forced                                   : No
  94.  
  95. Menu
  96. 00:00:00.000                             : en:Chapter 1
  97. 00:08:52.782                             : en:Chapter 2
  98. 00:12:46.766                             : en:Chapter 3
  99. 00:18:55.134                             : en:Chapter 4
  100. 00:21:48.515                             : en:Chapter 5
  101. 00:29:24.096                             : en:Chapter 6
  102. 00:33:09.446                             : en:Chapter 7
  103. 00:37:35.044                             : en:Chapter 8
  104. 00:43:24.352                             : en:Chapter 9
  105. 00:49:42.062                             : en:Chapter 10
  106. 00:56:37.227                             : en:Chapter 11
  107. 01:01:12.711                             : en:Chapter 12
  108. 01:05:37.392                             : en:Chapter 13
  109. 01:12:37.186                             : en:Chapter 14
  110. 01:20:35.706                             : en:Chapter 15
  111. 01:23:26.626                             : en:Chapter 16
RAW Paste Data
We use cookies for various purposes including analytics. By continuing to use Pastebin, you agree to our use of cookies as described in the Cookies Policy. OK, I Understand
 
Top