SHARE
TWEET

Untitled

a guest Aug 8th, 2012 329 Never
Not a member of Pastebin yet? Sign Up, it unlocks many cool features!
  1.  
  2.  
  3. root@pisces:~# /usr/sbin/webcam.sh
  4. ffserver version 0.11.1 Copyright (c) 2000-2012 the FFmpeg developers
  5.   built on Aug  8 2012 13:53:20 with gcc 4.6.3
  6.   configuration:
  7.   libavutil      51. 54.100 / 51. 54.100
  8.   libavcodec     54. 23.100 / 54. 23.100
  9. ffmpeg version 0.11.1 Copyright (c) 2000-2012 the FFmpeg developers
  10.   built on Aug  8 2012 13:53:20 with gcc 4.6.3
  11.   configuration:
  12.   libavutil      51. 54.100 / 51. 54.100
  13.   libavcodec     54. 23.100 / 54. 23.100
  14.   libavformat    54.  6.100 / 54.  6.100
  15.   libavdevice    54.  0.100 / 54.  0.100
  16.   libavfilter     2. 77.100 /  2. 77.100
  17.   libavformat    54.  6.100 / 54.  6.100
  18.   libavdevice    54.  0.100 / 54.  0.100
  19.   libavfilter     2. 77.100 /  2. 77.100
  20.   libswscale      2.  1.100 /  2.  1.100
  21.   libswresample   0. 15.100 /  0. 15.100
  22.   libswscale      2.  1.100 /  2.  1.100
  23.   libswresample   0. 15.100 /  0. 15.100
  24. [video4linux2,v4l2 @ 0x19b6520] [3]Capabilities: 4000001
  25. [video4linux2,v4l2 @ 0x19b6520] The v4l2 frame is 65496 bytes, but 614400 bytes are expected
  26. [video4linux2,v4l2 @ 0x19b6520] Estimating duration from bitrate, this may be inaccurate
  27. Input #0, video4linux2,v4l2, from '/dev/video0':
  28.   Duration: N/A, bitrate: 24576 kb/s
  29.     Stream #0:0: Video: rawvideo (YUY2 / 0x32595559), yuyv422, 640x480, 24576 kb/s, 5 tbr, 1000k tbn, 5 tbc
  30. [buffer @ 0x19b8610] w:640 h:480 pixfmt:yuyv422 tb:1/1000000 sar:0/1 sws_param:flags=2
  31. [buffersink @ 0x19b8940] No opaque field provided
  32. [scale @ 0x19baea0] w:640 h:480 fmt:yuyv422 sar:0/1 -> w:640 h:480 fmt:yuvj422p sar:0/1 flags:0x4
  33. Output #0, ffm, to 'http://localhost/webcam.ffm':
  34.   Metadata:
  35.     encoder         : Lavf54.6.100
  36.     Stream #0:0: Video: mjpeg, yuvj422p, 640x480, q=1-10, 2000 kb/s, 1000k tbn, 5 tbc
  37. Stream mapping:
  38.   Stream #0:0 -> #0:0 (rawvideo -> mjpeg)
  39. Press [q] to stop, [?] for help
  40. [video4linux2,v4l2 @ 0x19b6520] The v4l2 frame is 63244 bytes, but 614400 bytes are expected
  41. frame=    0 fps=0.0 q=0.0 Lsize=       4kB time=00:00:00.00 bitrate=   0.0kbits/s
  42. video:0kB audio:0kB global headers:0kB muxing overhead inf%
  43. Output file is empty, nothing was encoded (check -ss / -t / -frames parameters if used)
  44. root@pisces:~#
RAW Paste Data
We use cookies for various purposes including analytics. By continuing to use Pastebin, you agree to our use of cookies as described in the Cookies Policy. OK, I Understand
Top