Henry_Kr

SW-S01

Sep 12th, 2019
253
Never
Not a member of Pastebin yet? Sign Up, it unlocks many cool features!
  1. Video
  2. ID : 1
  3. Format : AVC
  4. Format/Info : Advanced Video Codec
  5. Format profile : High@L4
  6. Format settings : CABAC / 5 Ref Frames
  7. Format settings, CABAC : Yes
  8. Format settings, Reference : 5 frames
  9. Muxing mode : Header stripping
  10. Codec ID : V_MPEG4/ISO/AVC
  11. Duration : 25 min 15 s
  12. Bit rate : 3 524 kb/s
  13. Width : 1 440 pixels
  14. Height : 1 080 pixels
  15. Display aspect ratio : 4:3
  16. Frame rate mode : Constant
  17. Frame rate : 23.976 (24000/1001) FPS
  18. Color space : YUV
  19. Chroma subsampling : 4:2:0
  20. Bit depth : 8 bits
  21. Scan type : Progressive
  22. Bits/(Pixel*Frame) : 0.095
  23. Stream size : 623 MiB (88%)
  24. Title : Yoroiden.Samurai.Troopers.S01E01.A.Terra.Das.Sombras.1080p.Bluray.[CartoonNOW]
  25. Writing library : x264 core 155 r2901 7d0ff22
  26. Language : Japanese
  27. Default : Yes
  28. Forced : No
  29.  
  30. Audio #1
  31. ID : 2
  32. Format : AC-3
  33. Format/Info : Audio Coding 3
  34. Commercial name : Dolby Digital
  35. Muxing mode : Header stripping
  36. Codec ID : A_AC3
  37. Duration : 25 min 15 s
  38. Bit rate mode : Constant
  39. Bit rate : 192 kb/s
  40. Channel(s) : 2 channels
  41. Channel layout : L R
  42. Sampling rate : 44.1 kHz
  43. Frame rate : 28.711 FPS (1536 SPF)
  44. Bit depth : 16 bits
  45. Compression mode : Lossy
  46. Stream size : 34.7 MiB (5%)
  47. Title : AC3 - 2.0
  48. Language : Portuguese
  49. Service kind : Complete Main
  50. Default : Yes
  51. Forced : No
  52.  
  53. Audio #2
  54. ID : 3
  55. Format : AC-3
  56. Format/Info : Audio Coding 3
  57. Commercial name : Dolby Digital
  58. Muxing mode : Header stripping
  59. Codec ID : A_AC3
  60. Duration : 25 min 15 s
  61. Bit rate mode : Constant
  62. Bit rate : 192 kb/s
  63. Channel(s) : 2 channels
  64. Channel layout : L R
  65. Sampling rate : 44.1 kHz
  66. Frame rate : 28.711 FPS (1536 SPF)
  67. Bit depth : 16 bits
  68. Compression mode : Lossy
  69. Stream size : 34.7 MiB (5%)
  70. Title : AC3 - 2.0
  71. Language : Japanese
  72. Service kind : Complete Main
  73. Default : No
  74. Forced : No
  75.  
  76. Text #1
  77. ID : 4
  78. Format : ASS
  79. Codec ID : S_TEXT/ASS
  80. Codec ID/Info : Advanced Sub Station Alpha
  81. Compression mode : Lossless
  82. Title : Forçada
  83. Language : Portuguese
  84. Default : No
  85. Forced : Yes
  86.  
  87. Text #2
  88. ID : 5
  89. Format : ASS
  90. Codec ID : S_TEXT/ASS
  91. Codec ID/Info : Advanced Sub Station Alpha
  92. Compression mode : Lossless
  93. Title : Completa
  94. Language : Portuguese
  95. Default : No
  96. Forced : No
  97.  
  98. Menu
  99. 00:01:02.859 : en: PARTE I
  100. 00:02:32.738 : en: PARTE II
  101. 00:13:08.245 : en: PARTE III
  102. 00:23:45.005 : en: PARTE IV / en: PARTE V
RAW Paste Data