daily pastebin goal
20%
SHARE
TWEET

Untitled

Secasa Dec 7th, 2017 3 Never
Not a member of Pastebin yet? Sign Up, it unlocks many cool features!
  1. Format                                   : Matroska
  2. Format version                           : Version 2
  3. File size                                : 4.37 GiB
  4. Duration                                 : 1h 30mn
  5. Overall bit rate                         : 6 949 Kbps
  6. Encoded date                             : UTC 2017-12-06 21:47:00
  7. Writing application                      : mkvmerge v5.3.0 ('I could have danced') built on Feb  9 2012 10:38:07
  8. Writing library                          : libebml v1.2.3 + libmatroska v1.3.0
  9.  
  10. Video
  11. ID                                       : 1
  12. Format                                   : AVC
  13. Format/Info                              : Advanced Video Codec
  14. Format profile                           : High@L4.1
  15. Format settings, CABAC                   : Yes
  16. Format settings, ReFrames                : 5 frames
  17. Codec ID                                 : V_MPEG4/ISO/AVC
  18. Duration                                 : 1h 30mn
  19. Bit rate                                 : 5 722 Kbps
  20. Width                                    : 1 920 pixels
  21. Height                                   : 1 080 pixels
  22. Display aspect ratio                     : 16:9
  23. Frame rate mode                          : Constant
  24. Frame rate                               : 23.976 fps
  25. Color space                              : YUV
  26. Chroma subsampling                       : 4:2:0
  27. Bit depth                                : 8 bits
  28. Scan type                                : Progressive
  29. Bits/(Pixel*Frame)                       : 0.115
  30. Stream size                              : 3.60 GiB (82%)
  31. Writing library                          : x264 core 148 r2708 86b7198
  32. Encoding settings                        : cabac=1 / ref=5 / deblock=1:-3:-3 / analyse=0x3:0x113 / me=umh / subme=10 / psy=1 / psy_rd=1.10:0.05 / mixed_ref=0 / me_range=24 / chroma_me=1 / trellis=2 / 8x8dct=1 / cqm=0 / deadzone=21,11 / fast_pskip=1 / chroma_qp_offset=-3 / threads=12 / lookahead_threads=1 / sliced_threads=0 / nr=0 / decimate=1 / interlaced=0 / bluray_compat=0 / constrained_intra=0 / bframes=5 / b_pyramid=2 / b_adapt=2 / b_bias=0 / direct=1 / weightb=1 / open_gop=0 / weightp=2 / keyint=240 / keyint_min=24 / scenecut=40 / intra_refresh=0 / rc_lookahead=45 / rc=crf / mbtree=1 / crf=22.0 / qcomp=0.70 / qpmin=0 / qpmax=69 / qpstep=4 / vbv_maxrate=62500 / vbv_bufsize=78125 / crf_max=0.0 / nal_hrd=none / filler=0 / ip_ratio=1.40 / aq=1:1.10
  33. Language                                 : Spanish
  34. Default                                  : Yes
  35. Forced                                   : No
  36. Color primaries                          : BT.709
  37. Transfer characteristics                 : BT.709
  38. Matrix coefficients                      : BT.709
  39.  
  40. Audio #1
  41. ID                                       : 2
  42. Format                                   : AC-3
  43. Format/Info                              : Audio Coding 3
  44. Mode extension                           : CM (complete main)
  45. Format settings, Endianness              : Big
  46. Codec ID                                 : A_AC3
  47. Duration                                 : 1h 30mn
  48. Bit rate mode                            : Constant
  49. Bit rate                                 : 640 Kbps
  50. Channel count                            : 6 channels
  51. Channel positions                        : Front: L C R, Side: L R, LFE
  52. Sampling rate                            : 48.0 KHz
  53. Bit depth                                : 16 bits
  54. Compression mode                         : Lossy
  55. Stream size                              : 412 MiB (9%)
  56. Language                                 : Spanish
  57. Default                                  : Yes
  58. Forced                                   : No
  59.  
  60. Audio #2
  61. ID                                       : 3
  62. Format                                   : AC-3
  63. Format/Info                              : Audio Coding 3
  64. Mode extension                           : CM (complete main)
  65. Format settings, Endianness              : Big
  66. Codec ID                                 : A_AC3
  67. Duration                                 : 1h 30mn
  68. Bit rate mode                            : Constant
  69. Bit rate                                 : 448 Kbps
  70. Channel count                            : 6 channels
  71. Channel positions                        : Front: L C R, Side: L R, LFE
  72. Sampling rate                            : 48.0 KHz
  73. Bit depth                                : 16 bits
  74. Compression mode                         : Lossy
  75. Stream size                              : 289 MiB (6%)
  76. Language                                 : English
  77. Default                                  : No
  78. Forced                                   : No
  79.  
  80. Text
  81. ID                                       : 4
  82. Format                                   : UTF-8
  83. Codec ID                                 : S_TEXT/UTF8
  84. Codec ID/Info                            : UTF-8 Plain Text
  85. Language                                 : English
  86. Default                                  : No
  87. Forced                                   : No
RAW Paste Data
We use cookies for various purposes including analytics. By continuing to use Pastebin, you agree to our use of cookies as described in the Cookies Policy. OK, I Understand
 
Top