Henry_Kr

SWBB-S01

May 5th, 2021
40
Never
Not a member of Pastebin yet? Sign Up, it unlocks many cool features!
  1. Format : Matroska
  2. Format version : Version 2
  3. File size : 3.29 GiB
  4. Duration : 1 h 11 min
  5. Overall bit rate mode : Variable
  6. Overall bit rate : 6 618 kb/s
  7. Encoded date : UTC 2021-05-05 04:51:50
  8. Writing application : mkvmerge v5.8.0 ('No Sleep / Pillow') built on Sep 2 2012 15:37:04
  9. Writing library : libebml v1.2.3 + libmatroska v1.3.0
  10.  
  11. Video
  12. ID : 1
  13. Format : AVC
  14. Format/Info : Advanced Video Codec
  15. Format profile : High@L4
  16. Format settings : CABAC / 4 Ref Frames
  17. Format settings, CABAC : Yes
  18. Format settings, Reference : 4 frames
  19. Muxing mode : Header stripping
  20. Codec ID : V_MPEG4/ISO/AVC
  21. Duration : 1 h 11 min
  22. Bit rate mode : Variable
  23. Bit rate : 5 975 kb/s
  24. Maximum bit rate : 12.7 Mb/s
  25. Width : 1 920 pixels
  26. Height : 1 080 pixels
  27. Display aspect ratio : 16:9
  28. Frame rate mode : Constant
  29. Frame rate : 23.976 (24000/1001) FPS
  30. Color space : YUV
  31. Chroma subsampling : 4:2:0
  32. Bit depth : 8 bits
  33. Scan type : Progressive
  34. Bits/(Pixel*Frame) : 0.120
  35. Stream size : 2.97 GiB (90%)
  36. Title : Star.Wars.The.Bad.Batch.S01E01.Depois.do.Fim.1080p.DSNP.WEB.[CartoonNOW]
  37. Language : English
  38. Default : Yes
  39. Forced : No
  40. Color range : Limited
  41. Color primaries : BT.709
  42. Transfer characteristics : BT.709
  43. Matrix coefficients : BT.709
  44.  
  45. Audio #1
  46. ID : 2
  47. Format : E-AC-3
  48. Format/Info : Enhanced AC-3
  49. Commercial name : Dolby Digital Plus
  50. Muxing mode : Header stripping
  51. Codec ID : A_EAC3
  52. Duration : 1 h 11 min
  53. Bit rate mode : Constant
  54. Bit rate : 256 kb/s
  55. Channel(s) : 6 channels
  56. Channel layout : L R C LFE Ls Rs
  57. Sampling rate : 48.0 kHz
  58. Frame rate : 31.250 FPS (1536 SPF)
  59. Compression mode : Lossy
  60. Stream size : 130 MiB (4%)
  61. Title : E-AC3 5.1
  62. Language : Portuguese
  63. Service kind : Complete Main
  64. Default : Yes
  65. Forced : No
  66.  
  67. Audio #2
  68. ID : 3
  69. Format : E-AC-3
  70. Format/Info : Enhanced AC-3
  71. Commercial name : Dolby Digital Plus
  72. Muxing mode : Header stripping
  73. Codec ID : A_EAC3
  74. Duration : 1 h 11 min
  75. Bit rate mode : Constant
  76. Bit rate : 256 kb/s
  77. Channel(s) : 6 channels
  78. Channel layout : L R C LFE Ls Rs
  79. Sampling rate : 48.0 kHz
  80. Frame rate : 31.250 FPS (1536 SPF)
  81. Compression mode : Lossy
  82. Stream size : 130 MiB (4%)
  83. Title : E-AC3 5.1
  84. Language : English
  85. Service kind : Complete Main
  86. Default : No
  87. Forced : No
  88.  
  89. Text #1
  90. ID : 4
  91. Format : UTF-8
  92. Codec ID : S_TEXT/UTF8
  93. Codec ID/Info : UTF-8 Plain Text
  94. Title : Forçada
  95. Language : Portuguese
  96. Default : No
  97. Forced : Yes
  98.  
  99. Text #2
  100. ID : 5
  101. Format : UTF-8
  102. Codec ID : S_TEXT/UTF8
  103. Codec ID/Info : UTF-8 Plain Text
  104. Title : Completa
  105. Language : Portuguese
  106. Default : No
  107. Forced : No
  108.  
  109. Menu
  110. 01:10:36.945 : en:Credits
RAW Paste Data