SHARE
TWEET

ffmpeg log

a guest Dec 12th, 2018 14 Never
Not a member of Pastebin yet? Sign Up, it unlocks many cool features!
  1. mkvmerge -i german_dd_to_alac__english_truehd_to_alac.mkv
  2. mkvextract tracks german_dd_to_alac__english_truehd_to_alac.mkv 0:video.h264 1:audio1.ac3 2:audio2.truehd 3:audio2_core.ac3 4:sub1.srt
  3. ffmpeg -i german_dd_to_alac__english_truehd_to_alac.mkv -f ffmetadata chapters
  4. ffmpeg -i audio1.ac3 -acodec alac audio1.m4a
  5.  
  6.  
  7. ffmpeg version 4.0.2 Copyright (c) 2000-2018 the FFmpeg developers
  8.   built with gcc 7.3.1 (GCC) 20180722
  9.   configuration: --enable-gpl --enable-version3 --enable-sdl2 --enable-bzlib --enable-fontconfig --enable-gnutls --enable-iconv --enable-libass --enable-libbluray --enable-libfreetype --enable-libmp3lame --enable-libopencore-amrnb --enable-libopencore-amrwb --enable-libopenjpeg --enable-libopus --enable-libshine --enable-libsnappy --enable-libsoxr --enable-libtheora --enable-libtwolame --enable-libvpx --enable-libwavpack --enable-libwebp --enable-libx264 --enable-libx265 --enable-libxml2 --enable-libzimg --enable-lzma --enable-zlib --enable-gmp --enable-libvidstab --enable-libvorbis --enable-libvo-amrwbenc --enable-libmysofa --enable-libspeex --enable-libxvid --enable-libaom --enable-libmfx --enable-amf --enable-ffnvcodec --enable-cuvid --enable-d3d11va --enable-nvenc --enable-nvdec --enable-dxva2 --enable-avisynth
  10.   libavutil      56. 14.100 / 56. 14.100
  11.   libavcodec     58. 18.100 / 58. 18.100
  12.   libavformat    58. 12.100 / 58. 12.100
  13.   libavdevice    58.  3.100 / 58.  3.100
  14.   libavfilter     7. 16.100 /  7. 16.100
  15.   libswscale      5.  1.100 /  5.  1.100
  16.   libswresample   3.  1.100 /  3.  1.100
  17.   libpostproc    55.  1.100 / 55.  1.100
  18. [ac3 @ 0000000000452ac0] Estimating duration from bitrate, this may be inaccurate
  19. Input #0, ac3, from 'audio1.ac3':
  20.   Duration: 02:24:29.54, start: 0.000000, bitrate: 640 kb/s
  21.     Stream #0:0: Audio: ac3, 48000 Hz, 5.1(side), fltp, 640 kb/s
  22. Stream mapping:
  23.   Stream #0:0 -> #0:0 (ac3 (native) -> alac (native))
  24. Press [q] to stop, [?] for help
  25. [alac @ 000000000045cbc0] encoding as 24 bits-per-sample
  26. Output #0, ipod, to 'audio1.m4a':
  27.   Metadata:
  28.     encoder         : Lavf58.12.100
  29.     Stream #0:0: Audio: alac (alac / 0x63616C61), 48000 Hz, 5.1, s32p (24 bit), 128 kb/s
  30.     Metadata:
  31.       encoder         : Lavc58.18.100 alac
  32.  
  33. video:0kB audio:3754850kB subtitle:0kB other streams:0kB global headers:0kB muxing overhead: 0.011574%
  34.  
  35.  
  36. ffmpeg -i audio2.truehd -acodec alac -af "aformat=channel_layouts=7.1(wide)" audio2.m4a
  37.  
  38.  
  39. ffmpeg version 4.0.2 Copyright (c) 2000-2018 the FFmpeg developers
  40.   built with gcc 7.3.1 (GCC) 20180722
  41.   configuration: --enable-gpl --enable-version3 --enable-sdl2 --enable-bzlib --enable-fontconfig --enable-gnutls --enable-iconv --enable-libass --enable-libbluray --enable-libfreetype --enable-libmp3lame --enable-libopencore-amrnb --enable-libopencore-amrwb --enable-libopenjpeg --enable-libopus --enable-libshine --enable-libsnappy --enable-libsoxr --enable-libtheora --enable-libtwolame --enable-libvpx --enable-libwavpack --enable-libwebp --enable-libx264 --enable-libx265 --enable-libxml2 --enable-libzimg --enable-lzma --enable-zlib --enable-gmp --enable-libvidstab --enable-libvorbis --enable-libvo-amrwbenc --enable-libmysofa --enable-libspeex --enable-libxvid --enable-libaom --enable-libmfx --enable-amf --enable-ffnvcodec --enable-cuvid --enable-d3d11va --enable-nvenc --enable-nvdec --enable-dxva2 --enable-avisynth
  42.   libavutil      56. 14.100 / 56. 14.100
  43.   libavcodec     58. 18.100 / 58. 18.100
  44.   libavformat    58. 12.100 / 58. 12.100
  45.   libavdevice    58.  3.100 / 58.  3.100
  46.   libavfilter     7. 16.100 /  7. 16.100
  47.   libswscale      5.  1.100 /  5.  1.100
  48.   libswresample   3.  1.100 /  3.  1.100
  49.   libpostproc    55.  1.100 / 55.  1.100
  50. Input #0, truehd, from 'audio2.truehd':
  51.   Duration: N/A, start: 0.000000, bitrate: N/A
  52.     Stream #0:0: Audio: truehd, 48000 Hz, 7.1, s32 (24 bit)
  53. Stream mapping:
  54.   Stream #0:0 -> #0:0 (truehd (native) -> alac (native))
  55. Press [q] to stop, [?] for help
  56. Output #0, ipod, to 'audio2.m4a':
  57.   Metadata:
  58.     encoder         : Lavf58.12.100
  59.     Stream #0:0: Audio: alac (alac / 0x63616C61), 48000 Hz, 7.1(wide), s32p (24 bit), 128 kb/s
  60.     Metadata:
  61.       encoder         : Lavc58.18.100 alac
  62. [out_0_0 @ 000000000041bd00] 100 buffers queued in out_0_0, something may be wrong.
  63.  
  64. video:0kB audio:4510732kB subtitle:0kB other streams:0kB global headers:0kB muxing overhead: 0.010070%
  65.  
  66.  
  67. ffmpeg^
  68.  -probesize 2147483648 -i video.h264 -i audio1_alac.m4a -i audio2_alac.m4a -i sub1.srt -i chapters^
  69.  -map 0:0 -map 1:0 -map 2:0 -map 3:0^
  70.  -metadata:s:a:0 language=ger -metadata:s:a:0 handler="Dolby Digital"^
  71.  -metadata:s:a:1 language=eng -metadata:s:a:1 handler="Dolby TrueHD"^
  72.  -metadata:s:s:0 language=ger -metadata:s:s:0 handler="Deutsch"^
  73.  -movflags disable_chpl^
  74.  -c:s mov_text -c:v copy -c:a copy^
  75.  german_dd_to_alac__english_truehd_to_alac.m4v 2>> ffmpeg.log
  76.  
  77.  
  78. ffmpeg version 4.0.2 Copyright (c) 2000-2018 the FFmpeg developers
  79.   built with gcc 7.3.1 (GCC) 20180722
  80.   configuration: --enable-gpl --enable-version3 --enable-sdl2 --enable-bzlib --enable-fontconfig --enable-gnutls --enable-iconv --enable-libass --enable-libbluray --enable-libfreetype --enable-libmp3lame --enable-libopencore-amrnb --enable-libopencore-amrwb --enable-libopenjpeg --enable-libopus --enable-libshine --enable-libsnappy --enable-libsoxr --enable-libtheora --enable-libtwolame --enable-libvpx --enable-libwavpack --enable-libwebp --enable-libx264 --enable-libx265 --enable-libxml2 --enable-libzimg --enable-lzma --enable-zlib --enable-gmp --enable-libvidstab --enable-libvorbis --enable-libvo-amrwbenc --enable-libmysofa --enable-libspeex --enable-libxvid --enable-libaom --enable-libmfx --enable-amf --enable-ffnvcodec --enable-cuvid --enable-d3d11va --enable-nvenc --enable-nvdec --enable-dxva2 --enable-avisynth
  81.   libavutil      56. 14.100 / 56. 14.100
  82.   libavcodec     58. 18.100 / 58. 18.100
  83.   libavformat    58. 12.100 / 58. 12.100
  84.   libavdevice    58.  3.100 / 58.  3.100
  85.   libavfilter     7. 16.100 /  7. 16.100
  86.   libswscale      5.  1.100 /  5.  1.100
  87.   libswresample   3.  1.100 /  3.  1.100
  88.   libpostproc    55.  1.100 / 55.  1.100
  89. [h264 @ 00000000005037c0] Stream #0: not enough frames to estimate rate; consider increasing probesize
  90. Input #0, h264, from 'video.h264':
  91.   Duration: N/A, bitrate: N/A
  92.     Stream #0:0: Video: h264 (High), yuv420p(progressive), 1920x1080 [SAR 1:1 DAR 16:9], 24 fps, 23.98 tbr, 1200k tbn, 47.95 tbc
  93. Input #1, mov,mp4,m4a,3gp,3g2,mj2, from 'audio1_alac.m4a':
  94.   Metadata:
  95.     major_brand     : M4A
  96.     minor_version   : 0
  97.     compatible_brands: M4A mp42isom
  98.     creation_time   : 2018-12-04T17:21:37.000000Z
  99.     encoder         : qaac 2.68, CoreAudioToolbox 7.10.9.0, Apple Lossless Encoder
  100.   Duration: 02:24:29.54, start: 0.000000, bitrate: 1192 kb/s
  101.     Stream #1:0(und): Audio: alac (alac / 0x63616C61), 48000 Hz, 5.1, s16p, 1191 kb/s (default)
  102.     Metadata:
  103.       creation_time   : 2018-12-04T17:21:37.000000Z
  104. Input #2, mov,mp4,m4a,3gp,3g2,mj2, from 'audio2_alac.m4a':
  105.   Metadata:
  106.     major_brand     : M4A
  107.     minor_version   : 0
  108.     compatible_brands: M4A mp42isom
  109.     creation_time   : 2018-12-04T17:29:59.000000Z
  110.     encoder         : qaac 2.68, CoreAudioToolbox 7.10.9.0, Apple Lossless Encoder
  111.   Duration: 02:24:29.54, start: 0.000000, bitrate: 4212 kb/s
  112.     Stream #2:0(und): Audio: alac (alac / 0x63616C61), 48000 Hz, 7.1(wide), s32p (24 bit), 4211 kb/s (default)
  113.     Metadata:
  114.       creation_time   : 2018-12-04T17:29:59.000000Z
  115. Input #3, srt, from 'sub1.srt':
  116.   Duration: N/A, bitrate: N/A
  117.     Stream #3:0: Subtitle: subrip
  118. Input #4, ffmetadata, from 'chapters':
  119.   Metadata:
  120.     encoder         : Lavf58.12.100
  121.   Duration: 02:24:29.54, start: 0.000000, bitrate: 0 kb/s
  122.     Chapter #4:0: start 0.000000, end 287.662000
  123.     Metadata:
  124.       title           : 00:00:00.000
  125.     Chapter #4:1: start 287.662000, end 541.541000
  126.     Metadata:
  127.       title           : 00:04:47.662
  128.     Chapter #4:2: start 541.541000, end 931.556000
  129.     Metadata:
  130.       title           : 00:09:01.541
  131.     Chapter #4:3: start 931.556000, end 1272.229000
  132.     Metadata:
  133.       title           : 00:15:31.556
  134.     Chapter #4:4: start 1272.229000, end 1608.774000
  135.     Metadata:
  136.       title           : 00:21:12.229
  137.     Chapter #4:5: start 1608.774000, end 1882.756000
  138.     Metadata:
  139.       title           : 00:26:48.774
  140.     Chapter #4:6: start 1882.756000, end 2060.058000
  141.     Metadata:
  142.       title           : 00:31:22.756
  143.     Chapter #4:7: start 2060.058000, end 2376.124000
  144.     Metadata:
  145.       title           : 00:34:20.058
  146.     Chapter #4:8: start 2376.124000, end 2832.872000
  147.     Metadata:
  148.       title           : 00:39:36.124
  149.     Chapter #4:9: start 2832.872000, end 3239.027000
  150.     Metadata:
  151.       title           : 00:47:12.872
  152.     Chapter #4:10: start 3239.027000, end 3747.744000
  153.     Metadata:
  154.       title           : 00:53:59.027
  155.     Chapter #4:11: start 3747.744000, end 4203.324000
  156.     Metadata:
  157.       title           : 01:02:27.744
  158.     Chapter #4:12: start 4203.324000, end 4982.477000
  159.     Metadata:
  160.       title           : 01:10:03.324
  161.     Chapter #4:13: start 4982.477000, end 5231.101000
  162.     Metadata:
  163.       title           : 01:23:02.477
  164.     Chapter #4:14: start 5231.101000, end 5690.685000
  165.     Metadata:
  166.       title           : 01:27:11.101
  167.     Chapter #4:15: start 5690.685000, end 6156.359000
  168.     Metadata:
  169.       title           : 01:34:50.685
  170.     Chapter #4:16: start 6156.359000, end 6488.148000
  171.     Metadata:
  172.       title           : 01:42:36.359
  173.     Chapter #4:17: start 6488.148000, end 6827.279000
  174.     Metadata:
  175.       title           : 01:48:08.148
  176.     Chapter #4:18: start 6827.279000, end 7222.882000
  177.     Metadata:
  178.       title           : 01:53:47.279
  179.     Chapter #4:19: start 7222.882000, end 7639.465000
  180.     Metadata:
  181.       title           : 02:00:22.882
  182.     Chapter #4:20: start 7639.465000, end 8305.422000
  183.     Metadata:
  184.       title           : 02:07:19.465
  185.     Chapter #4:21: start 8305.422000, end 8669.537000
  186.     Metadata:
  187.       title           : 02:18:25.422
  188. [ipod @ 000000000338c040] track 1: codec frame size is not set
  189. [ipod @ 000000000338c040] track 2: codec frame size is not set
  190. Output #0, ipod, to 'german_dd_to_alac__english_truehd_to_alac.m4v':
  191.   Metadata:
  192.     encoder         : Lavf58.12.100
  193.     Chapter #0:0: start 0.000000, end 287.662000
  194.     Metadata:
  195.       title           : 00:00:00.000
  196.     Chapter #0:1: start 287.662000, end 541.541000
  197.     Metadata:
  198.       title           : 00:04:47.662
  199.     Chapter #0:2: start 541.541000, end 931.556000
  200.     Metadata:
  201.       title           : 00:09:01.541
  202.     Chapter #0:3: start 931.556000, end 1272.229000
  203.     Metadata:
  204.       title           : 00:15:31.556
  205.     Chapter #0:4: start 1272.229000, end 1608.774000
  206.     Metadata:
  207.       title           : 00:21:12.229
  208.     Chapter #0:5: start 1608.774000, end 1882.756000
  209.     Metadata:
  210.       title           : 00:26:48.774
  211.     Chapter #0:6: start 1882.756000, end 2060.058000
  212.     Metadata:
  213.       title           : 00:31:22.756
  214.     Chapter #0:7: start 2060.058000, end 2376.124000
  215.     Metadata:
  216.       title           : 00:34:20.058
  217.     Chapter #0:8: start 2376.124000, end 2832.872000
  218.     Metadata:
  219.       title           : 00:39:36.124
  220.     Chapter #0:9: start 2832.872000, end 3239.027000
  221.     Metadata:
  222.       title           : 00:47:12.872
  223.     Chapter #0:10: start 3239.027000, end 3747.744000
  224.     Metadata:
  225.       title           : 00:53:59.027
  226.     Chapter #0:11: start 3747.744000, end 4203.324000
  227.     Metadata:
  228.       title           : 01:02:27.744
  229.     Chapter #0:12: start 4203.324000, end 4982.477000
  230.     Metadata:
  231.       title           : 01:10:03.324
  232.     Chapter #0:13: start 4982.477000, end 5231.101000
  233.     Metadata:
  234.       title           : 01:23:02.477
  235.     Chapter #0:14: start 5231.101000, end 5690.685000
  236.     Metadata:
  237.       title           : 01:27:11.101
  238.     Chapter #0:15: start 5690.685000, end 6156.359000
  239.     Metadata:
  240.       title           : 01:34:50.685
  241.     Chapter #0:16: start 6156.359000, end 6488.148000
  242.     Metadata:
  243.       title           : 01:42:36.359
  244.     Chapter #0:17: start 6488.148000, end 6827.279000
  245.     Metadata:
  246.       title           : 01:48:08.148
  247.     Chapter #0:18: start 6827.279000, end 7222.882000
  248.     Metadata:
  249.       title           : 01:53:47.279
  250.     Chapter #0:19: start 7222.882000, end 7639.465000
  251.     Metadata:
  252.       title           : 02:00:22.882
  253.     Chapter #0:20: start 7639.465000, end 8305.422000
  254.     Metadata:
  255.       title           : 02:07:19.465
  256.     Chapter #0:21: start 8305.422000, end 8669.537000
  257.     Metadata:
  258.       title           : 02:18:25.422
  259.     Stream #0:0: Video: h264 (High) (avc1 / 0x31637661), yuv420p(progressive), 1920x1080 [SAR 1:1 DAR 16:9], q=2-31, 24 fps, 23.98 tbr, 1200k tbn, 1200k tbc
  260.     Stream #0:1(ger): Audio: alac (alac / 0x63616C61), 48000 Hz, 5.1, s16p, 1191 kb/s (default)
  261.     Metadata:
  262.       creation_time   : 2018-12-04T17:21:37.000000Z
  263.       handler         : Dolby Digital
  264.     Stream #0:2(eng): Audio: alac (alac / 0x63616C61), 48000 Hz, 7.1(wide), s32p (24 bit), 4211 kb/s (default)
  265.     Metadata:
  266.       creation_time   : 2018-12-04T17:29:59.000000Z
  267.       handler         : Dolby TrueHD
  268.     Stream #0:3(ger): Subtitle: mov_text (tx3g / 0x67337874)
  269.     Metadata:
  270.       handler         : Deutsch
  271.       encoder         : Lavc58.18.100 mov_text
  272. Stream mapping:
  273.   Stream #0:0 -> #0:0 (copy)
  274.   Stream #1:0 -> #0:1 (copy)
  275.   Stream #2:0 -> #0:2 (copy)
  276.   Stream #3:0 -> #0:3 (subrip (srt) -> mov_text (native))
  277. Press [q] to stop, [?] for help
  278. [ipod @ 000000000338c040] Timestamps are unset in a packet for stream 0. This is deprecated and will stop working in the future. Fix your code to set the timestamps properly
  279. [ipod @ 000000000338c040] pts has no value
  280.     Last message repeated 211 times
  281. frame=207861 fps=104 q=-1.0 Lsize=33837046kB time=02:24:29.52 bitrate=31973.3kbits/s speed=4.33x    
  282. video:28112901kB audio:5718696kB subtitle:3kB other streams:0kB global headers:0kB muxing overhead: 0.016096%
RAW Paste Data
We use cookies for various purposes including analytics. By continuing to use Pastebin, you agree to our use of cookies as described in the Cookies Policy. OK, I Understand
 
Top