GrabHD

Untitled

Feb 21st, 2020
88
Never
Not a member of Pastebin yet? Sign Up, it unlocks many cool features!
  1. General
  2. Unique ID : 328298027719412891394381955835804638604 (0xF6FBE675439ED09169CCD25403CDDD8C)
  3. Complete name : The.Last.Thing.He.Wanted.2020.1080p.NF.WEB-DL.DDP5.1.x264-EniaHD.mkv
  4. Format : Matroska
  5. Format version : Version 4
  6. File size : 4.37 GiB
  7. Duration : 1 h 55 min
  8. Overall bit rate mode : Variable
  9. Overall bit rate : 5 407 kb/s
  10. Movie name : The Last Thing He Wanted (2020) - EniaHD
  11. Encoded date : UTC 2020-02-21 08:23:10
  12. Writing application : mkvmerge v43.0.0 ('The Quartermaster') 64-bit
  13. Writing library : libebml v1.3.10 + libmatroska v1.5.2
  14.  
  15. Video
  16. ID : 1
  17. Format : AVC
  18. Format/Info : Advanced Video Codec
  19. Format profile : Main@L4
  20. Format settings : CABAC / 3 Ref Frames
  21. Format settings, CABAC : Yes
  22. Format settings, Reference fra : 3 frames
  23. Codec ID : V_MPEG4/ISO/AVC
  24. Duration : 1 h 55 min
  25. Bit rate mode : Variable
  26. Bit rate : 4 220 kb/s
  27. Maximum bit rate : 6 330 kb/s
  28. Width : 1 920 pixels
  29. Height : 1 080 pixels
  30. Display aspect ratio : 16:9
  31. Frame rate mode : Constant
  32. Frame rate : 24.000 FPS
  33. Color space : YUV
  34. Chroma subsampling : 4:2:0
  35. Bit depth : 8 bits
  36. Scan type : Progressive
  37. Bits/(Pixel*Frame) : 0.085
  38. Stream size : 3.33 GiB (76%)
  39. Writing library : x264 core 148 r2715 7e75228
  40. Encoding settings : cabac=1 / ref=3 / deblock=1:0:0 / analyse=0x1:0x111 / me=umh / subme=10 / psy=1 / psy_rd=1.00:0.00 / mixed_ref=1 / me_range=24 / chroma_me=1 / trellis=2 / 8x8dct=0 / cqm=0 / deadzone=21,11 / fast_pskip=1 / chroma_qp_offset=-2 / threads=8 / lookahead_threads=1 / sliced_threads=0 / nr=0 / decimate=1 / interlaced=0 / bluray_compat=0 / stitchable=1 / constrained_intra=0 / bframes=2 / b_pyramid=0 / b_adapt=2 / b_bias=0 / direct=3 / weightb=1 / open_gop=0 / weightp=2 / keyint=250 / keyint_min=24 / scenecut=0 / intra_refresh=0 / rc_lookahead=48 / rc=2pass / mbtree=1 / bitrate=4220 / ratetol=1.0 / qcomp=0.50 / qpmin=6 / qpmax=51 / qpstep=4 / cplxblur=20.0 / qblur=0.5 / vbv_maxrate=6330 / vbv_bufsize=8440 / nal_hrd=vbr / filler=0 / ip_ratio=1.40 / aq=1:1.00
  41. Default : Yes
  42. Forced : No
  43.  
  44. Audio #1
  45. ID : 2
  46. Format : E-AC-3
  47. Format/Info : Enhanced AC-3
  48. Commercial name : Dolby Digital Plus
  49. Codec ID : A_EAC3
  50. Duration : 1 h 55 min
  51. Bit rate mode : Constant
  52. Bit rate : 640 kb/s
  53. Channel(s) : 6 channels
  54. Channel layout : L R C LFE Ls Rs
  55. Sampling rate : 48.0 kHz
  56. Frame rate : 31.250 FPS (1536 SPF)
  57. Compression mode : Lossy
  58. Stream size : 530 MiB (12%)
  59. Language : Russian
  60. Service kind : Complete Main
  61. Default : Yes
  62. Forced : No
  63.  
  64. Audio #2
  65. ID : 3
  66. Format : E-AC-3
  67. Format/Info : Enhanced AC-3
  68. Commercial name : Dolby Digital Plus
  69. Codec ID : A_EAC3
  70. Duration : 1 h 55 min
  71. Bit rate mode : Constant
  72. Bit rate : 640 kb/s
  73. Channel(s) : 6 channels
  74. Channel layout : L R C LFE Ls Rs
  75. Sampling rate : 48.0 kHz
  76. Frame rate : 31.250 FPS (1536 SPF)
  77. Compression mode : Lossy
  78. Stream size : 530 MiB (12%)
  79. Language : English
  80. Service kind : Complete Main
  81. Default : No
  82. Forced : No
  83.  
  84. Text #1
  85. ID : 4
  86. Format : UTF-8
  87. Codec ID : S_TEXT/UTF8
  88. Codec ID/Info : UTF-8 Plain Text
  89. Duration : 1 h 46 min
  90. Bit rate : 5 b/s
  91. Count of elements : 78
  92. Stream size : 4.21 KiB (0%)
  93. Title : Forced
  94. Language : Russian
  95. Default : Yes
  96. Forced : No
  97.  
  98. Text #2
  99. ID : 5
  100. Format : UTF-8
  101. Codec ID : S_TEXT/UTF8
  102. Codec ID/Info : UTF-8 Plain Text
  103. Duration : 1 h 54 min
  104. Bit rate : 102 b/s
  105. Count of elements : 1635
  106. Stream size : 86.3 KiB (0%)
  107. Language : Russian
  108. Default : No
  109. Forced : No
  110.  
  111. Text #3
  112. ID : 6
  113. Format : UTF-8
  114. Codec ID : S_TEXT/UTF8
  115. Codec ID/Info : UTF-8 Plain Text
  116. Duration : 1 min 16 s
  117. Bit rate : 62 b/s
  118. Count of elements : 18
  119. Stream size : 595 Bytes (0%)
  120. Title : Forced
  121. Language : English
  122. Default : No
  123. Forced : No
  124.  
  125. Text #4
  126. ID : 7
  127. Format : UTF-8
  128. Codec ID : S_TEXT/UTF8
  129. Codec ID/Info : UTF-8 Plain Text
  130. Duration : 1 h 45 min
  131. Bit rate : 76 b/s
  132. Count of elements : 1686
  133. Stream size : 59.1 KiB (0%)
  134. Language : English
  135. Default : No
  136. Forced : No
  137.  
  138. Text #5
  139. ID : 8
  140. Format : UTF-8
  141. Codec ID : S_TEXT/UTF8
  142. Codec ID/Info : UTF-8 Plain Text
  143. Duration : 1 h 49 min
  144. Bit rate : 82 b/s
  145. Count of elements : 1923
  146. Stream size : 66.0 KiB (0%)
  147. Title : SDH
  148. Language : English
  149. Default : No
  150. Forced : No
  151.  
  152. Text #6
  153. ID : 9
  154. Format : UTF-8
  155. Codec ID : S_TEXT/UTF8
  156. Codec ID/Info : UTF-8 Plain Text
  157. Duration : 1 h 54 min
  158. Bit rate : 63 b/s
  159. Count of elements : 1509
  160. Stream size : 53.5 KiB (0%)
  161. Language : German
  162. Default : No
  163. Forced : No
  164.  
  165. Text #7
  166. ID : 10
  167. Format : UTF-8
  168. Codec ID : S_TEXT/UTF8
  169. Codec ID/Info : UTF-8 Plain Text
  170. Duration : 1 h 47 min
  171. Bit rate : 62 b/s
  172. Count of elements : 1598
  173. Stream size : 49.5 KiB (0%)
  174. Title : European
  175. Language : Spanish
  176. Default : No
  177. Forced : No
  178.  
  179. Text #8
  180. ID : 11
  181. Format : UTF-8
  182. Codec ID : S_TEXT/UTF8
  183. Codec ID/Info : UTF-8 Plain Text
  184. Duration : 1 h 47 min
  185. Bit rate : 65 b/s
  186. Count of elements : 1642
  187. Stream size : 51.6 KiB (0%)
  188. Language : French
  189. Default : No
  190. Forced : No
  191.  
  192. Text #9
  193. ID : 12
  194. Format : UTF-8
  195. Codec ID : S_TEXT/UTF8
  196. Codec ID/Info : UTF-8 Plain Text
  197. Duration : 1 h 47 min
  198. Bit rate : 61 b/s
  199. Count of elements : 1581
  200. Stream size : 48.8 KiB (0%)
  201. Language : Italian
  202. Default : No
  203. Forced : No
  204.  
  205. Text #10
  206. ID : 13
  207. Format : UTF-8
  208. Codec ID : S_TEXT/UTF8
  209. Codec ID/Info : UTF-8 Plain Text
  210. Duration : 1 h 47 min
  211. Bit rate : 63 b/s
  212. Count of elements : 1407
  213. Stream size : 49.8 KiB (0%)
  214. Language : Portuguese
  215. Default : No
  216. Forced : No
RAW Paste Data