trds

Untitled

Nov 17th, 2021
208
Never
Not a member of Pastebin yet? Sign Up, it unlocks many cool features!
  1. General
  2. Unique ID : 180304108074584176530714107002473669087 (0x87A54EDE9291D7AA91EF9E27F917E1DF)
  3. Complete name : Crouching.Tiger.Hidden.Dragon.Sword.of.Destiny.2016.1080p.BluRay.DD5.1.x264-HiFi.mkv
  4. Format : Matroska
  5. Format version : Version 4 / Version 2
  6. File size : 13.6 GiB
  7. Duration : 1h 42mn
  8. Overall bit rate : 19.0 Mbps
  9. Movie name : Crouching.Tiger.Hidden.Dragon.Sword.of.Destiny.2016.1080p.BluRay.DD5.1.x264-HiFi
  10. Encoded date : UTC 2016-04-11 13:48:44
  11. Writing application : mkvmerge v8.6.1 ('Flying') 64bit
  12. Writing library : libebml v1.3.3 + libmatroska v1.4.4
  13. DURATION : 01:28:54.245000000
  14. NUMBER_OF_FRAMES : 789
  15. NUMBER_OF_BYTES : 22827
  16. _STATISTICS_WRITING_APP : mkvmerge v8.6.1 ('Flying') 64bit
  17. _STATISTICS_WRITING_DATE_UTC : 2016-04-11 13:48:44
  18. _STATISTICS_TAGS : BPS DURATION NUMBER_OF_FRAMES NUMBER_OF_BYTES
  19.  
  20. Video
  21. ID : 1
  22. Format : AVC
  23. Format/Info : Advanced Video Codec
  24. Format profile : High@L4.1
  25. Format settings, CABAC : Yes
  26. Format settings, ReFrames : 5 frames
  27. Codec ID : V_MPEG4/ISO/AVC
  28. Duration : 1h 42mn
  29. Bit rate : 18.0 Mbps
  30. Width : 1 920 pixels
  31. Height : 804 pixels
  32. Display aspect ratio : 2.40:1
  33. Frame rate mode : Constant
  34. Frame rate : 23.976 fps
  35. Color space : YUV
  36. Chroma subsampling : 4:2:0
  37. Bit depth : 8 bits
  38. Scan type : Progressive
  39. Bits/(Pixel*Frame) : 0.487
  40. Stream size : 12.9 GiB (95%)
  41. Writing library : x264 core 148 r2638 7599210
  42. Encoding settings : cabac=1 / ref=5 / deblock=1:-3:-3 / analyse=0x3:0x113 / me=umh / subme=10 / psy=1 / psy_rd=1.10:0.00 / mixed_ref=1 / me_range=32 / chroma_me=1 / trellis=2 / 8x8dct=1 / cqm=0 / deadzone=21,11 / fast_pskip=0 / chroma_qp_offset=-2 / threads=6 / lookahead_threads=1 / sliced_threads=0 / nr=0 / decimate=0 / interlaced=0 / bluray_compat=0 / constrained_intra=0 / bframes=11 / b_pyramid=2 / b_adapt=2 / b_bias=0 / direct=3 / weightb=1 / open_gop=0 / weightp=2 / keyint=250 / keyint_min=23 / scenecut=40 / intra_refresh=0 / rc_lookahead=60 / rc=crf / mbtree=0 / crf=15.6 / qcomp=0.75 / qpmin=0 / qpmax=69 / qpstep=4 / vbv_maxrate=38000 / vbv_bufsize=32000 / crf_max=0.0 / nal_hrd=none / filler=0 / ip_ratio=1.30 / pb_ratio=1.20 / aq=1:0.65
  43. Language : English
  44. Default : Yes
  45. Forced : No
  46. DURATION : 01:42:30.520000000
  47. NUMBER_OF_FRAMES : 147465
  48. NUMBER_OF_BYTES : 14144328670
  49. _STATISTICS_WRITING_APP : mkvmerge v8.6.1 ('Flying') 64bit
  50. _STATISTICS_WRITING_DATE_UTC : 2016-04-11 13:48:44
  51. _STATISTICS_TAGS : BPS DURATION NUMBER_OF_FRAMES NUMBER_OF_BYTES
  52.  
  53. Audio
  54. ID : 2
  55. Format : AC-3
  56. Format/Info : Audio Coding 3
  57. Mode extension : CM (complete main)
  58. Format settings, Endianness : Big
  59. Codec ID : A_AC3
  60. Duration : 1h 42mn
  61. Bit rate mode : Constant
  62. Bit rate : 640 Kbps
  63. Channel(s) : 6 channels
  64. Channel positions : Front: L C R, Side: L R, LFE
  65. Sampling rate : 48.0 KHz
  66. Bit depth : 16 bits
  67. Compression mode : Lossy
  68. Stream size : 469 MiB (3%)
  69. Language : English
  70. Default : Yes
  71. Forced : No
  72.  
  73. Text #1
  74. ID : 3
  75. Format : UTF-8
  76. Codec ID : S_TEXT/UTF8
  77. Codec ID/Info : UTF-8 Plain Text
  78. Title : Regular
  79. Language : English
  80. Default : No
  81. Forced : No
  82.  
  83. Text #2
  84. ID : 4
  85. Format : UTF-8
  86. Codec ID : S_TEXT/UTF8
  87. Codec ID/Info : UTF-8 Plain Text
  88. Title : SDH
  89. Language : English
  90. Default : No
  91. Forced : No
  92.  
  93. Menu
  94. 00:00:00.000 : en:Chapter 1
  95. 00:07:52.514 : en:Chapter 2
  96. 00:17:19.288 : en:Chapter 3
  97. 00:23:26.196 : en:Chapter 4
  98. 00:35:37.552 : en:Chapter 5
  99. 00:45:17.840 : en:Chapter 6
  100. 00:50:26.148 : en:Chapter 7
  101. 00:57:38.872 : en:Chapter 8
  102. 01:09:58.903 : en:Chapter 9
  103. 01:18:32.499 : en:Chapter 10
  104. 01:26:14.252 : en:Chapter 11
  105. 01:32:28.877 : en:Chapter 12
RAW Paste Data