SHARE
TWEET

[Asenshi] Yuru Camp - 03v2 [4F19128C].mkv

a guest Jan 27th, 2018 49 Never
Not a member of Pastebin yet? Sign Up, it unlocks many cool features!
  1. General
  2. Unique ID                                : 165305788227912820543723346863650515268 (0x7C5CBC9BD5FDFF82985112D746E42944)
  3. Format                                   : Matroska
  4. Format version                           : Version 4 / Version 2
  5. File size                                : 212 MiB
  6. Duration                                 : 23 min 39 s
  7. Overall bit rate                         : 1 253 kb/s
  8. Encoded date                             : UTC 2018-01-26 18:38:50
  9. Writing application                      : mkvmerge v20.0.0 ('I Am The Sun') 64-bit
  10. Writing library                          : libebml v1.3.5 + libmatroska v1.4.8
  11. Attachments                              : Cabin-Regular.otf / Eager_Naturalist.ttf / erasdus0.ttf / FOT-ChiaroStd-B-EN.otf / FOTKafuNagomiStdStripped-Bold.otf / FOTRodinPro-UB-wixoss.ttf / Odin-Bold.otf / PoetsenOne-Regular.otf / RUZICKATYPEK.TTF / segoeui.ttf / Biko-Bold_0.otf / Cabin-Bold.otf / Cabin-BoldItalic.otf
  12.  
  13. Video
  14. ID                                       : 1
  15. Format                                   : AVC
  16. Format/Info                              : Advanced Video Codec
  17. Format profile                           : High 4:4:4 Predictive@L5
  18. Format settings, CABAC                   : Yes
  19. Format settings, ReFrames                : 16 frames
  20. Codec ID                                 : V_MPEG4/ISO/AVC
  21. Duration                                 : 23 min 39 s
  22. Bit rate                                 : 977 kb/s
  23. Width                                    : 1 280 pixels
  24. Height                                   : 720 pixels
  25. Display aspect ratio                     : 16:9
  26. Frame rate mode                          : Constant
  27. Frame rate                               : 23.976 (24000/1001) FPS
  28. Color space                              : YUV
  29. Chroma subsampling                       : 4:4:4
  30. Bit depth                                : 10 bits
  31. Scan type                                : Progressive
  32. Bits/(Pixel*Frame)                       : 0.044
  33. Stream size                              : 165 MiB (78%)
  34. Writing library                          : x264 core 155 r2867+74 66b5600 t_mod_Custom_2 [10-bit@all X86_64]
  35. Encoding settings                        : cabac=1 / ref=16 / deblock=1:0:0 / analyse=0x1:0x131 / me=umh / subme=10 / psy=1 / fade_compensate=0.80 / psy_rd=0.80:0.00 / mixed_ref=1 / me_range=24 / chroma_me=1 / trellis=2 / 8x8dct=0 / cqm=0 / deadzone=21,11 / fast_pskip=1 / chroma_qp_offset=4 / threads=12 / lookahead_threads=3 / sliced_threads=0 / nr=0 / decimate=1 / interlaced=0 / bluray_compat=0 / constrained_intra=0 / fgo=0 / bframes=16 / b_pyramid=2 / b_adapt=2 / b_bias=0 / direct=3 / weightb=1 / open_gop=0 / weightp=2 / keyint=250 / keyint_min=23 / scenecut=40 / intra_refresh=0 / rc_lookahead=60 / rc=crf / mbtree=1 / crf=16.0000 / qcomp=0.65 / qpmin=0:0:0 / qpmax=81:81:81 / qpstep=4 / ip_ratio=1.40 / aq=3:0.80 / aq-sensitivity=10.00 / aq-factor=1.00:1.00:1.00 / aq2=0 / aq3=0
  36. Language                                 : English
  37. Default                                  : Yes
  38. Forced                                   : No
  39. Color range                              : Limited
  40. Matrix coefficients                      : BT.709
  41.  
  42. Audio
  43. ID                                       : 2
  44. Format                                   : AAC
  45. Format/Info                              : Advanced Audio Codec
  46. Format profile                           : LC
  47. Codec ID                                 : A_AAC
  48. Duration                                 : 23 min 39 s
  49. Bit rate                                 : 252 kb/s
  50. Channel(s)                               : 2 channels
  51. Channel positions                        : Front: L R
  52. Sampling rate                            : 48.0 kHz
  53. Frame rate                               : 46.875 FPS (1024 spf)
  54. Compression mode                         : Lossy
  55. Stream size                              : 42.7 MiB (20%)
  56. Language                                 : Japanese
  57. Default                                  : Yes
  58. Forced                                   : No
  59.  
  60. Text
  61. ID                                       : 3
  62. Format                                   : ASS
  63. Codec ID                                 : S_TEXT/ASS
  64. Codec ID/Info                            : Advanced Sub Station Alpha
  65. Duration                                 : 23 min 19 s
  66. Bit rate                                 : 853 b/s
  67. Count of elements                        : 515
  68. Compression mode                         : Lossless
  69. Stream size                              : 146 KiB (0%)
  70. Language                                 : English
  71. Default                                  : Yes
  72. Forced                                   : No
  73.  
  74. Menu
  75. 00:00:00.000                             : :Intro
  76. 00:03:36.925                             : :Opening
  77. 00:05:06.890                             : :Episode
  78. 00:21:00.801                             : :Ending
  79. 00:22:30.891                             : :Room Camp
  80. 00:23:24.862                             : :Preview
RAW Paste Data
We use cookies for various purposes including analytics. By continuing to use Pastebin, you agree to our use of cookies as described in the Cookies Policy. OK, I Understand
Top