GrabHD

Untitled

Mar 1st, 2020
114
Never
Not a member of Pastebin yet? Sign Up, it unlocks many cool features!
  1. General
  2. Unique ID : 50194475385150518479078411458963556828 (0x25C31AB4A17AACF434A07A831FB3C9DC)
  3. Complete name : E:Video111Holly.Slept.Over.2020.WEB-DL.1080p.seleZen.mkv
  4. Format : Matroska
  5. Format version : Version 4
  6. File size : 3.28 GiB
  7. Duration : 1 h 27 min
  8. Overall bit rate : 5 358 kb/s
  9. Movie name : Holly Slept Over 2020 from селезень
  10. Encoded date : UTC 2020-03-01 19:46:22
  11. Writing application : mkvmerge v40.0.0 ('Old Town Road + Pony') 64-bit
  12. Writing library : libebml v1.3.9 + libmatroska v1.5.2
  13.  
  14. Video
  15. ID : 1
  16. Format : AVC
  17. Format/Info : Advanced Video Codec
  18. Format profile : High@L4
  19. Format settings : CABAC / 5 Ref Frames
  20. Format settings, CABAC : Yes
  21. Format settings, Reference : 5 frames
  22. Codec ID : V_MPEG4/ISO/AVC
  23. Duration : 1 h 27 min
  24. Bit rate : 4 587 kb/s
  25. Width : 1 920 pixels
  26. Height : 796 pixels
  27. Display aspect ratio : 2.40:1
  28. Frame rate mode : Constant
  29. Frame rate : 23.976 (23976/1000) FPS
  30. Color space : YUV
  31. Chroma subsampling : 4:2:0
  32. Bit depth : 8 bits
  33. Scan type : Progressive
  34. Bits/(Pixel*Frame) : 0.125
  35. Stream size : 2.81 GiB (86%)
  36. Language : English
  37. Default : Yes
  38. Forced : No
  39. Color range : Limited
  40. Color primaries : BT.709
  41. Transfer characteristics : BT.709
  42. Matrix coefficients : BT.709
  43.  
  44. Audio #1
  45. ID : 2
  46. Format : AC-3
  47. Format/Info : Audio Coding 3
  48. Commercial name : Dolby Digital
  49. Codec ID : A_AC3
  50. Duration : 1 h 27 min
  51. Bit rate mode : Constant
  52. Bit rate : 384 kb/s
  53. Channel(s) : 6 channels
  54. Channel layout : L R C LFE Ls Rs
  55. Sampling rate : 48.0 kHz
  56. Frame rate : 31.250 FPS (1536 SPF)
  57. Compression mode : Lossy
  58. Delay relative to video : -42 ms
  59. Stream size : 241 MiB (7%)
  60. Title : iTunes
  61. Language : Russian
  62. Service kind : Complete Main
  63. Default : Yes
  64. Forced : Yes
  65.  
  66. Audio #2
  67. ID : 3
  68. Format : AC-3
  69. Format/Info : Audio Coding 3
  70. Commercial name : Dolby Digital
  71. Codec ID : A_AC3
  72. Duration : 1 h 27 min
  73. Bit rate mode : Constant
  74. Bit rate : 384 kb/s
  75. Channel(s) : 6 channels
  76. Channel layout : L R C LFE Ls Rs
  77. Sampling rate : 48.0 kHz
  78. Frame rate : 31.250 FPS (1536 SPF)
  79. Compression mode : Lossy
  80. Delay relative to video : -42 ms
  81. Stream size : 241 MiB (7%)
  82. Title : Original
  83. Language : English
  84. Service kind : Complete Main
  85. Default : No
  86. Forced : No
  87.  
  88. Text #1
  89. ID : 4
  90. Format : UTF-8
  91. Codec ID : S_TEXT/UTF8
  92. Codec ID/Info : UTF-8 Plain Text
  93. Duration : 1 h 26 min
  94. Bit rate : 113 b/s
  95. Count of elements : 1236
  96. Stream size : 71.9 KiB (0%)
  97. Title : Full
  98. Language : Russian
  99. Default : No
  100. Forced : No
  101.  
  102. Text #2
  103. ID : 5
  104. Format : UTF-8
  105. Codec ID : S_TEXT/UTF8
  106. Codec ID/Info : UTF-8 Plain Text
  107. Duration : 1 h 22 min
  108. Bit rate : 123 b/s
  109. Count of elements : 1237
  110. Stream size : 74.9 KiB (0%)
  111. Title : Full
  112. Language : Ukrainian
  113. Default : No
  114. Forced : No
  115.  
  116. Text #3
  117. ID : 6
  118. Format : UTF-8
  119. Codec ID : S_TEXT/UTF8
  120. Codec ID/Info : UTF-8 Plain Text
  121. Duration : 1 h 27 min
  122. Bit rate : 101 b/s
  123. Count of elements : 1751
  124. Stream size : 64.8 KiB (0%)
  125. Title : SDH
  126. Language : English
  127. Default : No
  128. Forced : No
  129.  
  130. Menu
  131. 00:00:00.000 : en:1
  132. 00:06:30.849 : en:2
  133. 00:11:55.757 : en:3
  134. 00:17:31.467 : en:4
  135. 00:24:42.606 : en:5
  136. 00:28:44.722 : en:6
  137. 00:33:16.659 : en:7
  138. 00:41:01.039 : en:8
  139. 00:42:36.091 : en:9
  140. 00:49:05.395 : en:10
  141. 00:56:50.485 : en:11
  142. 00:59:09.499 : en:12
  143. 01:03:48.861 : en:13
  144. 01:12:02.938 : en:14
  145. 01:17:43.612 : en:15
  146. 01:20:02.626 : en:16
RAW Paste Data