Henry_Kr

BTBATB-S01

Jun 6th, 2021
24
Never
Not a member of Pastebin yet? Sign Up, it unlocks many cool features!
  1. Video
  2. ID : 1
  3. Format : AVC
  4. Format/Info : Advanced Video Codec
  5. Format profile : High@L4
  6. Format settings : CABAC / 4 Ref Frames
  7. Format settings, CABAC : Yes
  8. Format settings, Reference : 4 frames
  9. Muxing mode : Header stripping
  10. Codec ID : V_MPEG4/ISO/AVC
  11. Duration : 22 min 49 s
  12. Bit rate mode : Variable
  13. Bit rate : 8 250 kb/s
  14. Maximum bit rate : 12.4 Mb/s
  15. Width : 1 920 pixels
  16. Height : 1 080 pixels
  17. Display aspect ratio : 16:9
  18. Frame rate mode : Constant
  19. Frame rate : 23.976 (24000/1001) FPS
  20. Color space : YUV
  21. Chroma subsampling : 4:2:0
  22. Bit depth : 8 bits
  23. Scan type : Progressive
  24. Bits/(Pixel*Frame) : 0.166
  25. Stream size : 1.28 GiB (89%)
  26. Title : Batman.The.Brave.and.The.Bold.S02E07.A.Luta.Dos.Homens.Metálicos.REPACK.1080p.BluRay.[CartoonNOW]
  27. Writing library : x264 core 157 r2965 861cec4
  28. Encoding settings : cabac=1 / ref=4 / deblock=1:0:0 / analyse=0x3:0x113 / me=hex / subme=7 / psy=1 / psy_rd=1.00:0.00 / mixed_ref=1 / me_range=16 / chroma_me=1 / trellis=1 / 8x8dct=1 / cqm=0 / deadzone=21,11 / fast_pskip=1 / chroma_qp_offset=-2 / threads=34 / lookahead_threads=5 / sliced_threads=0 / nr=0 / decimate=1 / interlaced=0 / bluray_compat=0 / constrained_intra=0 / bframes=3 / b_pyramid=2 / b_adapt=1 / b_bias=0 / direct=1 / weightb=1 / open_gop=0 / weightp=2 / keyint=96 / keyint_min=96 / scenecut=40 / intra_refresh=0 / rc_lookahead=40 / rc=2pass / mbtree=1 / bitrate=8250 / ratetol=1.0 / qcomp=0.60 / qpmin=0 / qpmax=69 / qpstep=4 / cplxblur=20.0 / qblur=0.5 / vbv_maxrate=12375 / vbv_bufsize=6187 / nal_hrd=vbr / filler=0 / ip_ratio=1.40 / aq=1:1.00
  29. Language : English
  30. Default : Yes
  31. Forced : No
  32. Color range : Limited
  33. Color primaries : BT.709
  34. Transfer characteristics : BT.709
  35. Matrix coefficients : BT.709
  36.  
  37. Audio #1
  38. ID : 2
  39. Format : AC-3
  40. Format/Info : Audio Coding 3
  41. Commercial name : Dolby Digital
  42. Muxing mode : Header stripping
  43. Codec ID : A_AC3
  44. Duration : 22 min 49 s
  45. Bit rate mode : Constant
  46. Bit rate : 384 kb/s
  47. Channel(s) : 2 channels
  48. Channel layout : L R
  49. Sampling rate : 48.0 kHz
  50. Frame rate : 31.250 FPS (1536 SPF)
  51. Compression mode : Lossy
  52. Stream size : 62.7 MiB (4%)
  53. Title : AC3 2.0
  54. Language : Portuguese
  55. Service kind : Complete Main
  56. Default : Yes
  57. Forced : No
  58.  
  59. Audio #2
  60. ID : 3
  61. Format : AC-3
  62. Format/Info : Audio Coding 3
  63. Commercial name : Dolby Digital
  64. Muxing mode : Header stripping
  65. Codec ID : A_AC3
  66. Duration : 22 min 49 s
  67. Bit rate mode : Constant
  68. Bit rate : 384 kb/s
  69. Channel(s) : 2 channels
  70. Channel layout : L R
  71. Sampling rate : 48.0 kHz
  72. Frame rate : 31.250 FPS (1536 SPF)
  73. Compression mode : Lossy
  74. Stream size : 62.7 MiB (4%)
  75. Title : AC3 2.0
  76. Language : English
  77. Service kind : Complete Main
  78. Default : No
  79. Forced : No
  80.  
  81. Text
  82. ID : 4
  83. Format : UTF-8
  84. Codec ID : S_TEXT/UTF8
  85. Codec ID/Info : UTF-8 Plain Text
  86. Title : Completa
  87. Language : Portuguese
  88. Default : No
  89. Forced : No
RAW Paste Data