SHARE
TWEET

La fuga de Logan (1976) [BR 720p x264, AC3(ES,EN) TrueHD(EN), Sub(ES,EN)].mkv.txt

Secasa May 11th, 2016 (edited) 11 Never
Not a member of Pastebin yet? Sign Up, it unlocks many cool features!
  1. Format                                   : Matroska
  2. Format version                           : Version 4 / Version 2
  3. File size                                : 7.43 GiB
  4. Duration                                 : 1h 58mn
  5. Overall bit rate mode                    : Variable
  6. Overall bit rate                         : 8 980 Kbps
  7. Movie name                               : La fuga de Logan (2013) BR 720p encoded by fauri13
  8. Encoded date                             : UTC 2013-06-18 17:09:42
  9. Writing application                      : mkvmerge v6.1.0 ('Old Devil') built on Mar  2 2013 22:22:31
  10. Writing library                          : libebml v1.3.0 + libmatroska v1.4.0
  11.  
  12. Video
  13. ID                                       : 1
  14. Format                                   : AVC
  15. Format/Info                              : Advanced Video Codec
  16. Format profile                           : High@L3.1
  17. Format settings, CABAC                   : Yes
  18. Format settings, ReFrames                : 6 frames
  19. Codec ID                                 : V_MPEG4/ISO/AVC
  20. Width                                    : 1 280 pixels
  21. Height                                   : 528 pixels
  22. Display aspect ratio                     : 2.40:1
  23. Frame rate mode                          : Variable
  24. Color space                              : YUV
  25. Chroma subsampling                       : 4:2:0
  26. Bit depth                                : 8 bits
  27. Scan type                                : Progressive
  28. Writing library                          : x264 core 130 r2273 b3065e6
  29. Encoding settings                        : cabac=1 / ref=6 / deblock=1:-1:-1 / analyse=0x3:0x133 / me=umh / subme=9 / psy=1 / psy_rd=1.00:0.15 / mixed_ref=1 / me_range=24 / chroma_me=1 / trellis=1 / 8x8dct=1 / cqm=0 / deadzone=21,11 / fast_pskip=1 / chroma_qp_offset=-3 / threads=6 / lookahead_threads=1 / sliced_threads=0 / nr=0 / decimate=1 / interlaced=0 / bluray_compat=0 / constrained_intra=0 / bframes=16 / b_pyramid=2 / b_adapt=2 / b_bias=0 / direct=3 / weightb=1 / open_gop=0 / weightp=1 / keyint=240 / keyint_min=24 / scenecut=40 / intra_refresh=0 / rc_lookahead=10 / rc=crf / mbtree=1 / crf=18.0 / qcomp=0.60 / qpmin=0 / qpmax=69 / qpstep=4 / ip_ratio=1.40 / aq=1:1.00
  30. Language                                 : English
  31. Default                                  : Yes
  32. Forced                                   : No
  33. Color primaries                          : BT.709
  34. Transfer characteristics                 : BT.709
  35. Matrix coefficients                      : BT.709
  36.  
  37. Audio #1
  38. ID                                       : 2
  39. Format                                   : AC-3
  40. Format/Info                              : Audio Coding 3
  41. Mode extension                           : CM (complete main)
  42. Format settings, Endianness              : Big
  43. Codec ID                                 : A_AC3
  44. Duration                                 : 1h 58mn
  45. Bit rate mode                            : Constant
  46. Bit rate                                 : 640 Kbps
  47. Channel count                            : 6 channels
  48. Channel positions                        : Front: L C R, Side: L R, LFE
  49. Sampling rate                            : 48.0 KHz
  50. Bit depth                                : 16 bits
  51. Compression mode                         : Lossy
  52. Stream size                              : 543 MiB (7%)
  53. Title                                    : Español AC3 5.1
  54. Language                                 : Spanish
  55. Default                                  : Yes
  56. Forced                                   : No
  57.  
  58. Audio #2
  59. ID                                       : 3
  60. Format                                   : TrueHD
  61. Codec ID                                 : A_TRUEHD
  62. Duration                                 : 1h 58mn
  63. Bit rate mode                            : Variable
  64. Maximum bit rate                         : 3 168 Kbps
  65. Channel count                            : 6 channels
  66. Channel positions                        : Front: L C R, Side: L R, LFE
  67. Sampling rate                            : 48.0 KHz
  68. Compression mode                         : Lossless
  69. Title                                    : English TrueHD 5.1
  70. Language                                 : English
  71. Default                                  : No
  72. Forced                                   : No
  73.  
  74. Audio #3
  75. ID                                       : 4
  76. Format                                   : AC-3
  77. Format/Info                              : Audio Coding 3
  78. Mode extension                           : CM (complete main)
  79. Format settings, Endianness              : Big
  80. Codec ID                                 : A_AC3
  81. Duration                                 : 1h 58mn
  82. Bit rate mode                            : Constant
  83. Bit rate                                 : 640 Kbps
  84. Channel count                            : 6 channels
  85. Channel positions                        : Front: L C R, Side: L R, LFE
  86. Sampling rate                            : 48.0 KHz
  87. Bit depth                                : 16 bits
  88. Compression mode                         : Lossy
  89. Stream size                              : 543 MiB (7%)
  90. Title                                    : English AC3 5.1
  91. Language                                 : English
  92. Default                                  : No
  93. Forced                                   : No
  94.  
  95. Text #1
  96. ID                                       : 5
  97. Format                                   : UTF-8
  98. Codec ID                                 : S_TEXT/UTF8
  99. Codec ID/Info                            : UTF-8 Plain Text
  100. Title                                    : Español
  101. Language                                 : Spanish
  102. Default                                  : No
  103. Forced                                   : No
  104.  
  105. Text #2
  106. ID                                       : 6
  107. Format                                   : UTF-8
  108. Codec ID                                 : S_TEXT/UTF8
  109. Codec ID/Info                            : UTF-8 Plain Text
  110. Title                                    : English SDH
  111. Language                                 : English
  112. Default                                  : No
  113. Forced                                   : No
  114.  
  115. Text #3
  116. ID                                       : 7
  117. Format                                   : UTF-8
  118. Codec ID                                 : S_TEXT/UTF8
  119. Codec ID/Info                            : UTF-8 Plain Text
  120. Title                                    : English
  121. Language                                 : English
  122. Default                                  : No
  123. Forced                                   : No
  124.  
  125. Menu
  126. 00:00:00.000                             : en:Chapter 1
  127. 00:02:38.865                             : en:Chapter 2
  128. 00:05:14.729                             : en:Chapter 3
  129. 00:10:31.754                             : en:Chapter 4
  130. 00:14:10.389                             : en:Chapter 5
  131. 00:19:09.104                             : en:Chapter 6
  132. 00:21:48.179                             : en:Chapter 7
  133. 00:28:31.124                             : en:Chapter 8
  134. 00:34:51.796                             : en:Chapter 9
  135. 00:43:43.035                             : en:Chapter 10
  136. 00:49:49.985                             : en:Chapter 11
  137. 00:52:47.871                             : en:Chapter 12
  138. 00:57:46.002                             : en:Chapter 13
  139. 01:00:27.747                             : en:Chapter 14
  140. 01:04:53.179                             : en:Chapter 15
  141. 01:06:35.572                             : en:Chapter 16
  142. 01:10:19.922                             : en:Chapter 17
  143. 01:12:29.718                             : en:Chapter 18
  144. 01:15:17.928                             : en:Chapter 19
  145. 01:17:40.779                             : en:Chapter 20
  146. 01:21:09.696                             : en:Chapter 21
  147. 01:32:27.873                             : en:Chapter 22
  148. 01:36:25.861                             : en:Chapter 23
  149. 01:37:48.735                             : en:Chapter 24
  150. 01:41:05.891                             : en:Chapter 25
  151. 01:42:10.122                             : en:Chapter 26
  152. 01:44:02.901                             : en:Chapter 27
  153. 01:47:28.690                             : en:Chapter 28
  154. 01:49:08.998                             : en:Chapter 29
  155. 01:53:31.928                             : en:Chapter 30
  156. 01:54:01.624                             : en:Chapter 31
  157. 01:56:25.935                             : en:Chapter 32
RAW Paste Data
We use cookies for various purposes including analytics. By continuing to use Pastebin, you agree to our use of cookies as described in the Cookies Policy. OK, I Understand
 
Top