Ledger Nano X - The secure hardware wallet
SHARE
TWEET

Gravity.Remux

iMN0 Jun 5th, 2017 328 Never
Not a member of Pastebin yet? Sign Up, it unlocks many cool features!
  1. Video
  2. ID                                       : 1
  3. Format                                   : AVC
  4. Format/Info                              : Advanced Video Codec
  5. Format profile                           : High@L4.1
  6. Format settings, CABAC                   : Yes
  7. Format settings, ReFrames                : 2 frames
  8. Codec ID                                 : V_MPEG4/ISO/AVC
  9. Duration                                 : 1h 30mn
  10. Bit rate mode                            : Variable
  11. Width                                    : 1 920 pixels
  12. Height                                   : 1 080 pixels
  13. Display aspect ratio                     : 16:9
  14. Frame rate mode                          : Constant
  15. Frame rate                               : 23.976 (24000/1001) fps
  16. Color space                              : YUV
  17. Chroma subsampling                       : 4:2:0
  18. Bit depth                                : 8 bits
  19. Scan type                                : Progressive
  20. Title                                    : Gravity.2013.1080p.BluRay.REMUX.AVC.DTS-HD.MA.TrueHD.7.1.Atmos-FGT
  21. Language                                 : English
  22. Default                                  : No
  23. Forced                                   : No
  24.  
  25. Audio #1
  26. ID                                       : 2
  27. Format                                   : DTS
  28. Format/Info                              : Digital Theater Systems
  29. Format profile                           : MA / Core
  30. Mode                                     : 16
  31. Format settings, Endianness              : Big
  32. Codec ID                                 : A_DTS
  33. Duration                                 : 1h 30mn
  34. Bit rate mode                            : Variable / Constant
  35. Bit rate                                 : Unknown / 1 509 Kbps
  36. Channel(s)                               : 8 channels / 6 channels
  37. Channel positions                        : Front: L C R, Side: L R, Back: L R, LFE / Front: L C R, Side: L R, LFE
  38. Sampling rate                            : 48.0 KHz
  39. Frame rate                               : 93.750 fps (512 spf)
  40. Bit depth                                : 24 bits
  41. Compression mode                         : Lossless / Lossy
  42. Title                                    : Gravity.2013.1080p.BluRay.REMUX.AVC.DTS-HD.MA.TrueHD.7.1.Atmos-FGT
  43. Language                                 : English
  44. Default                                  : Yes
  45. Forced                                   : No
  46.  
  47. Audio #2
  48. ID                                       : 3
  49. Format                                   : Atmos / TrueHD
  50. Codec ID                                 : A_TRUEHD
  51. Bit rate mode                            : Variable
  52. Maximum bit rate                         : 8 823 Kbps
  53. Channel(s)                               : Object Based / 8 channels
  54. Channel positions                        : Object Based / Front: L C R, Side: L R, Back: L R, LFE
  55. Sampling rate                            :  / 48.0 KHz
  56. Frame rate                               : 1 200.000 fps (40 spf)
  57. Compression mode                         : Lossless
  58. Title                                    : Gravity.2013.1080p.BluRay.REMUX.AVC.DTS-HD.MA.TrueHD.7.1.Atmos-FGT
  59. Language                                 : English
  60. Default                                  : No
  61. Forced                                   : No
  62.  
  63. Audio #3
  64. ID                                       : 4
  65. Format                                   : AC-3
  66. Format/Info                              : Audio Coding 3
  67. Mode extension                           : CM (complete main)
  68. Format settings, Endianness              : Big
  69. Codec ID                                 : A_AC3
  70. Duration                                 : 1h 30mn
  71. Bit rate mode                            : Constant
  72. Bit rate                                 : 384 Kbps
  73. Channel(s)                               : 6 channels
  74. Channel positions                        : Front: L C R, Side: L R, LFE
  75. Sampling rate                            : 48.0 KHz
  76. Frame rate                               : 31.250 fps (1536 spf)
  77. Compression mode                         : Lossy
  78. Stream size                              : 250 MiB (1%)
  79. Title                                    : Gravity.2013.1080p.BluRay.REMUX.AVC.DTS-HD.MA.TrueHD.7.1.Atmos-FGT
  80. Language                                 : English
  81. Default                                  : No
  82. Forced                                   : No
  83.  
  84. Audio #4
  85. ID                                       : 5
  86. Format                                   : AC-3
  87. Format/Info                              : Audio Coding 3
  88. Mode extension                           : CM (complete main)
  89. Format settings, Endianness              : Big
  90. Codec ID                                 : A_AC3
  91. Duration                                 : 1h 30mn
  92. Bit rate mode                            : Constant
  93. Bit rate                                 : 448 Kbps
  94. Channel(s)                               : 6 channels
  95. Channel positions                        : Front: L C R, Side: L R, LFE
  96. Sampling rate                            : 48.0 KHz
  97. Frame rate                               : 31.250 fps (1536 spf)
  98. Compression mode                         : Lossy
  99. Stream size                              : 292 MiB (1%)
  100. Title                                    : Gravity.2013.1080p.BluRay.REMUX.AVC.DTS-HD.MA.TrueHD.7.1.Atmos-FGT
  101. Language                                 : English
  102. Default                                  : No
  103. Forced                                   : No
  104.  
  105. Audio #5
  106. ID                                       : 6
  107. Format                                   : AC-3
  108. Format/Info                              : Audio Coding 3
  109. Mode extension                           : CM (complete main)
  110. Format settings, Endianness              : Big
  111. Codec ID                                 : A_AC3
  112. Duration                                 : 1h 30mn
  113. Bit rate mode                            : Constant
  114. Bit rate                                 : 448 Kbps
  115. Channel(s)                               : 6 channels
  116. Channel positions                        : Front: L C R, Side: L R, LFE
  117. Sampling rate                            : 48.0 KHz
  118. Frame rate                               : 31.250 fps (1536 spf)
  119. Compression mode                         : Lossy
  120. Stream size                              : 292 MiB (1%)
  121. Title                                    : Gravity.2013.1080p.BluRay.REMUX.AVC.DTS-HD.MA.TrueHD.7.1.Atmos-FGT
  122. Language                                 : French
  123. Default                                  : No
  124. Forced                                   : No
  125.  
  126. Audio #6
  127. ID                                       : 7
  128. Format                                   : AC-3
  129. Format/Info                              : Audio Coding 3
  130. Mode extension                           : CM (complete main)
  131. Format settings, Endianness              : Big
  132. Codec ID                                 : A_AC3
  133. Duration                                 : 1h 30mn
  134. Bit rate mode                            : Constant
  135. Bit rate                                 : 448 Kbps
  136. Channel(s)                               : 6 channels
  137. Channel positions                        : Front: L C R, Side: L R, LFE
  138. Sampling rate                            : 48.0 KHz
  139. Frame rate                               : 31.250 fps (1536 spf)
  140. Compression mode                         : Lossy
  141. Stream size                              : 292 MiB (1%)
  142. Title                                    : Gravity.2013.1080p.BluRay.REMUX.AVC.DTS-HD.MA.TrueHD.7.1.Atmos-FGT
  143. Language                                 : French
  144. Default                                  : No
  145. Forced                                   : No
  146.  
  147. Audio #7
  148. ID                                       : 8
  149. Format                                   : AC-3
  150. Format/Info                              : Audio Coding 3
  151. Mode extension                           : CM (complete main)
  152. Format settings, Endianness              : Big
  153. Codec ID                                 : A_AC3
  154. Duration                                 : 1h 30mn
  155. Bit rate mode                            : Constant
  156. Bit rate                                 : 448 Kbps
  157. Channel(s)                               : 6 channels
  158. Channel positions                        : Front: L C R, Side: L R, LFE
  159. Sampling rate                            : 48.0 KHz
  160. Frame rate                               : 31.250 fps (1536 spf)
  161. Compression mode                         : Lossy
  162. Stream size                              : 292 MiB (1%)
  163. Title                                    : Gravity.2013.1080p.BluRay.REMUX.AVC.DTS-HD.MA.TrueHD.7.1.Atmos-FGT
  164. Language                                 : German
  165. Default                                  : No
  166. Forced                                   : No
  167.  
  168. Audio #8
  169. ID                                       : 9
  170. Format                                   : AC-3
  171. Format/Info                              : Audio Coding 3
  172. Mode extension                           : CM (complete main)
  173. Format settings, Endianness              : Big
  174. Codec ID                                 : A_AC3
  175. Duration                                 : 1h 30mn
  176. Bit rate mode                            : Constant
  177. Bit rate                                 : 448 Kbps
  178. Channel(s)                               : 6 channels
  179. Channel positions                        : Front: L C R, Side: L R, LFE
  180. Sampling rate                            : 48.0 KHz
  181. Frame rate                               : 31.250 fps (1536 spf)
  182. Compression mode                         : Lossy
  183. Stream size                              : 292 MiB (1%)
  184. Title                                    : Gravity.2013.1080p.BluRay.REMUX.AVC.DTS-HD.MA.TrueHD.7.1.Atmos-FGT
  185. Language                                 : Italian
  186. Default                                  : No
  187. Forced                                   : No
  188.  
  189. Audio #9
  190. ID                                       : 10
  191. Format                                   : AC-3
  192. Format/Info                              : Audio Coding 3
  193. Mode extension                           : CM (complete main)
  194. Format settings, Endianness              : Big
  195. Codec ID                                 : A_AC3
  196. Duration                                 : 1h 30mn
  197. Bit rate mode                            : Constant
  198. Bit rate                                 : 448 Kbps
  199. Channel(s)                               : 6 channels
  200. Channel positions                        : Front: L C R, Side: L R, LFE
  201. Sampling rate                            : 48.0 KHz
  202. Frame rate                               : 31.250 fps (1536 spf)
  203. Compression mode                         : Lossy
  204. Stream size                              : 292 MiB (1%)
  205. Title                                    : Gravity.2013.1080p.BluRay.REMUX.AVC.DTS-HD.MA.TrueHD.7.1.Atmos-FGT
  206. Language                                 : Spanish
  207. Default                                  : No
  208. Forced                                   : No
  209.  
  210. Audio #10
  211. ID                                       : 11
  212. Format                                   : AC-3
  213. Format/Info                              : Audio Coding 3
  214. Mode extension                           : CM (complete main)
  215. Format settings, Endianness              : Big
  216. Codec ID                                 : A_AC3
  217. Duration                                 : 1h 30mn
  218. Bit rate mode                            : Constant
  219. Bit rate                                 : 448 Kbps
  220. Channel(s)                               : 6 channels
  221. Channel positions                        : Front: L C R, Side: L R, LFE
  222. Sampling rate                            : 48.0 KHz
  223. Frame rate                               : 31.250 fps (1536 spf)
  224. Compression mode                         : Lossy
  225. Stream size                              : 292 MiB (1%)
  226. Title                                    : Gravity.2013.1080p.BluRay.REMUX.AVC.DTS-HD.MA.TrueHD.7.1.Atmos-FGT
  227. Language                                 : Spanish
  228. Default                                  : No
  229. Forced                                   : No
  230.  
  231. Audio #11
  232. ID                                       : 12
  233. Format                                   : AC-3
  234. Format/Info                              : Audio Coding 3
  235. Mode extension                           : CM (complete main)
  236. Format settings, Endianness              : Big
  237. Codec ID                                 : A_AC3
  238. Duration                                 : 1h 30mn
  239. Bit rate mode                            : Constant
  240. Bit rate                                 : 448 Kbps
  241. Channel(s)                               : 6 channels
  242. Channel positions                        : Front: L C R, Side: L R, LFE
  243. Sampling rate                            : 48.0 KHz
  244. Frame rate                               : 31.250 fps (1536 spf)
  245. Compression mode                         : Lossy
  246. Stream size                              : 292 MiB (1%)
  247. Title                                    : Gravity.2013.1080p.BluRay.REMUX.AVC.DTS-HD.MA.TrueHD.7.1.Atmos-FGT
  248. Language                                 : Portuguese
  249. Default                                  : No
  250. Forced                                   : No
  251.  
  252. Text #1
  253. ID                                       : 13
  254. Format                                   : PGS
  255. Muxing mode                              : zlib
  256. Codec ID                                 : S_HDMV/PGS
  257. Codec ID/Info                            : Picture based subtitle format used on BDs/HD-DVDs
  258. Title                                    : English-PGS
  259. Language                                 : English
  260. Default                                  : Yes
  261. Forced                                   : No
  262.  
  263. Text #2
  264. ID                                       : 14
  265. Format                                   : PGS
  266. Muxing mode                              : zlib
  267. Codec ID                                 : S_HDMV/PGS
  268. Codec ID/Info                            : Picture based subtitle format used on BDs/HD-DVDs
  269. Title                                    : French-PGS
  270. Language                                 : French
  271. Default                                  : No
  272. Forced                                   : No
  273.  
  274. Text #3
  275. ID                                       : 15
  276. Format                                   : PGS
  277. Muxing mode                              : zlib
  278. Codec ID                                 : S_HDMV/PGS
  279. Codec ID/Info                            : Picture based subtitle format used on BDs/HD-DVDs
  280. Title                                    : German-PGS
  281. Language                                 : German
  282. Default                                  : No
  283. Forced                                   : No
  284.  
  285. Text #4
  286. ID                                       : 16
  287. Format                                   : PGS
  288. Muxing mode                              : zlib
  289. Codec ID                                 : S_HDMV/PGS
  290. Codec ID/Info                            : Picture based subtitle format used on BDs/HD-DVDs
  291. Title                                    : Italian-PGS
  292. Language                                 : Italian
  293. Default                                  : No
  294. Forced                                   : No
  295.  
  296. Text #5
  297. ID                                       : 17
  298. Format                                   : PGS
  299. Muxing mode                              : zlib
  300. Codec ID                                 : S_HDMV/PGS
  301. Codec ID/Info                            : Picture based subtitle format used on BDs/HD-DVDs
  302. Title                                    : Spanish-PGS
  303. Language                                 : Spanish
  304. Default                                  : No
  305. Forced                                   : No
  306.  
  307. Text #6
  308. ID                                       : 18
  309. Format                                   : PGS
  310. Muxing mode                              : zlib
  311. Codec ID                                 : S_HDMV/PGS
  312. Codec ID/Info                            : Picture based subtitle format used on BDs/HD-DVDs
  313. Title                                    : Spanish-PGS
  314. Language                                 : Spanish
  315. Default                                  : No
  316. Forced                                   : No
  317.  
  318. Text #7
  319. ID                                       : 19
  320. Format                                   : PGS
  321. Muxing mode                              : zlib
  322. Codec ID                                 : S_HDMV/PGS
  323. Codec ID/Info                            : Picture based subtitle format used on BDs/HD-DVDs
  324. Title                                    : Portuguese-PGS
  325. Language                                 : Portuguese
  326. Default                                  : No
  327. Forced                                   : No
  328.  
  329. Text #8
  330. ID                                       : 20
  331. Format                                   : PGS
  332. Muxing mode                              : zlib
  333. Codec ID                                 : S_HDMV/PGS
  334. Codec ID/Info                            : Picture based subtitle format used on BDs/HD-DVDs
  335. Title                                    : French-FORCED-PGS
  336. Language                                 : French
  337. Default                                  : No
  338. Forced                                   : No
  339.  
  340. Text #9
  341. ID                                       : 21
  342. Format                                   : PGS
  343. Muxing mode                              : zlib
  344. Codec ID                                 : S_HDMV/PGS
  345. Codec ID/Info                            : Picture based subtitle format used on BDs/HD-DVDs
  346. Title                                    : German-FORCED-PGS
  347. Language                                 : German
  348. Default                                  : No
  349. Forced                                   : No
  350.  
  351. Text #10
  352. ID                                       : 22
  353. Format                                   : PGS
  354. Muxing mode                              : zlib
  355. Codec ID                                 : S_HDMV/PGS
  356. Codec ID/Info                            : Picture based subtitle format used on BDs/HD-DVDs
  357. Title                                    : Italian-FORCED-PGS
  358. Language                                 : Italian
  359. Default                                  : No
  360. Forced                                   : No
  361.  
  362. Text #11
  363. ID                                       : 23
  364. Format                                   : PGS
  365. Muxing mode                              : zlib
  366. Codec ID                                 : S_HDMV/PGS
  367. Codec ID/Info                            : Picture based subtitle format used on BDs/HD-DVDs
  368. Title                                    : Spanish-FORCED-PGS
  369. Language                                 : Spanish
  370. Default                                  : No
  371. Forced                                   : No
  372.  
  373. Text #12
  374. ID                                       : 24
  375. Format                                   : PGS
  376. Muxing mode                              : zlib
  377. Codec ID                                 : S_HDMV/PGS
  378. Codec ID/Info                            : Picture based subtitle format used on BDs/HD-DVDs
  379. Title                                    : Spanish-FORCED-PGS
  380. Language                                 : Spanish
  381. Default                                  : No
  382. Forced                                   : No
  383.  
  384. Text #13
  385. ID                                       : 25
  386. Format                                   : PGS
  387. Muxing mode                              : zlib
  388. Codec ID                                 : S_HDMV/PGS
  389. Codec ID/Info                            : Picture based subtitle format used on BDs/HD-DVDs
  390. Title                                    : Portuguese-FORCED-PGS
  391. Language                                 : Portuguese
  392. Default                                  : No
  393. Forced                                   : No
  394.  
  395. Menu
  396. 00:00:00.000                             : en:Chapter 01
  397. 00:13:08.788                             : en:Chapter 02
  398. 00:21:33.458                             : en:Chapter 03
  399. 00:29:12.625                             : en:Chapter 04
  400. 00:39:59.814                             : en:Chapter 05
  401. 00:48:49.009                             : en:Chapter 06
  402. 00:57:00.291                             : en:Chapter 07
  403. 01:08:08.250                             : en:Chapter 08
  404. 01:15:27.105                             : en:Chapter 09
  405. 01:23:50.525                             : en:Chapter 10
RAW Paste Data
We use cookies for various purposes including analytics. By continuing to use Pastebin, you agree to our use of cookies as described in the Cookies Policy. OK, I Understand
Top