iMN0

The.Mimic.2017.BluRay.Remux.1080p.AVC.DTS-HD.MA.5.1-HDH.mkv

Jul 25th, 2018
59
Never
Not a member of Pastebin yet? Sign Up, it unlocks many cool features!
  1. General
  2. Unique ID : 189167630633647480211633179238366311797 (0x8E505C45715967C88E133E391065F575)
  3. Complete name : The.Mimic.2017.BluRay.Remux.1080p.AVC.DTS-HD.MA.5.1-HDH.mkv
  4. Format : Matroska
  5. Format version : Version 2
  6. File size : 17.4 GiB
  7. Duration : 1h 40mn
  8. Overall bit rate mode : Variable
  9. Overall bit rate : 25.0 Mbps
  10. Encoded date : UTC 2018-07-07 17:38:56
  11. Writing application : mkvmerge v8.5.2 ('Crosses') 32bit
  12. Writing library : libebml v1.3.3 + libmatroska v1.4.4
  13.  
  14. Video
  15. ID : 1
  16. Format : AVC
  17. Format/Info : Advanced Video Codec
  18. Format profile : High@L4.1
  19. Format settings, CABAC : Yes
  20. Format settings, ReFrames : 4 frames
  21. Codec ID : V_MPEG4/ISO/AVC
  22. Duration : 1h 40mn
  23. Bit rate mode : Variable
  24. Bit rate : 22.7 Mbps
  25. Maximum bit rate : 28.0 Mbps
  26. Width : 1 920 pixels
  27. Height : 1 080 pixels
  28. Display aspect ratio : 16:9
  29. Frame rate mode : Constant
  30. Frame rate : 23.976 (24000/1001) fps
  31. Color space : YUV
  32. Chroma subsampling : 4:2:0
  33. Bit depth : 8 bits
  34. Scan type : Progressive
  35. Bits/(Pixel*Frame) : 0.457
  36. Stream size : 15.9 GiB (91%)
  37. Default : No
  38. Forced : No
  39.  
  40. Audio
  41. ID : 2
  42. Format : DTS
  43. Format/Info : Digital Theater Systems
  44. Format profile : MA / Core
  45. Mode : 16
  46. Format settings, Endianness : Big
  47. Codec ID : A_DTS
  48. Duration : 1h 40mn
  49. Bit rate mode : Variable / Constant
  50. Bit rate : 2 209 Kbps / 1 509 Kbps
  51. Channel(s) : 6 channels
  52. Channel positions : Front: L C R, Side: L R, LFE
  53. Sampling rate : 48.0 KHz
  54. Frame rate : 93.750 fps (512 spf)
  55. Bit depth : 16 bits
  56. Compression mode : Lossless / Lossy
  57. Stream size : 1.54 GiB (9%)
  58. Language : Korean
  59. Default : Yes
  60. Forced : No
  61.  
  62. Text #1
  63. ID : 3
  64. Format : PGS
  65. Muxing mode : zlib
  66. Codec ID : S_HDMV/PGS
  67. Codec ID/Info : Picture based subtitle format used on BDs/HD-DVDs
  68. Duration : 1h 35mn
  69. Bit rate : 7 233 bps
  70. Count of elements : 1554
  71. Stream size : 4.92 MiB (0%)
  72. Language : English
  73. Default : Yes
  74. Forced : No
  75.  
  76. Text #2
  77. ID : 4
  78. Format : PGS
  79. Muxing mode : zlib
  80. Codec ID : S_HDMV/PGS
  81. Codec ID/Info : Picture based subtitle format used on BDs/HD-DVDs
  82. Duration : 1h 34mn
  83. Bit rate : 9 173 bps
  84. Count of elements : 1590
  85. Stream size : 6.18 MiB (0%)
  86. Language : Chinese
  87. Default : No
  88. Forced : No
  89.  
  90. Text #3
  91. ID : 5
  92. Format : PGS
  93. Muxing mode : zlib
  94. Codec ID : S_HDMV/PGS
  95. Codec ID/Info : Picture based subtitle format used on BDs/HD-DVDs
  96. Duration : 1h 34mn
  97. Bit rate : 9 362 bps
  98. Count of elements : 1590
  99. Stream size : 6.31 MiB (0%)
  100. Language : Chinese
  101. Default : No
  102. Forced : No
  103.  
  104. Menu
  105. 00:00:00.000 : en:00:00:00.000
  106. 00:07:12.932 : en:00:07:12.932
  107. 00:15:50.449 : en:00:15:50.449
  108. 00:22:38.899 : en:00:22:38.899
  109. 00:30:37.669 : en:00:30:37.669
  110. 00:39:29.951 : en:00:39:29.951
  111. 00:50:13.594 : en:00:50:13.594
  112. 00:56:46.528 : en:00:56:46.528
  113. 01:03:23.758 : en:01:03:23.758
  114. 01:12:54.704 : en:01:12:54.704
  115. 01:25:50.479 : en:01:25:50.479
  116. 01:35:34.187 : en:01:35:34.187
RAW Paste Data