Advertisement
javikobcn

jellyfin ffmpeg log

May 16th, 2022
7
Never
Not a member of Pastebin yet? Sign Up, it unlocks many cool features!
  1. /videos/63d52aed-64dd-1918-2fc9-d9182c68dc96/hls1/main/4.ts
  2.  
  3. {"Protocol":0,"Id":"63d52aed64dd19182fc9d9182c68dc96","Path":"/media/Peliculas/Memento.mkv","EncoderPath":null,"EncoderProtocol":null,"Type":0,"Container":"mkv,webm","Size":7054834176,"Name":"Memento","IsRemote":false,"ETag":"649616dd79d42c0d07269a3715838205","RunTimeTicks":68066279424,"ReadAtNativeFramerate":false,"IgnoreDts":false,"IgnoreIndex":false,"GenPtsInput":false,"SupportsTranscoding":true,"SupportsDirectStream":true,"SupportsDirectPlay":true,"IsInfiniteStream":false,"RequiresOpening":false,"OpenToken":null,"RequiresClosing":false,"LiveStreamId":null,"BufferMs":null,"RequiresLooping":false,"SupportsProbing":true,"VideoType":0,"IsoType":null,"Video3DFormat":null,"MediaStreams":[{"Codec":"h264","CodecTag":null,"Language":"eng","ColorRange":null,"ColorSpace":"bt709","ColorTransfer":"bt709","ColorPrimaries":"bt709","Comment":null,"TimeBase":"1/1000","CodecTimeBase":"550/26373","Title":"Memento [www.newpct1.com]","VideoRange":"SDR","localizedUndefined":null,"localizedDefault":null,"localizedForced":null,"DisplayTitle":"Memento [www.newpct1.com] - 1080p - H264 - SDR","NalLengthSize":"0","IsInterlaced":false,"IsAVC":false,"ChannelLayout":null,"BitRate":8291722,"BitDepth":8,"RefFrames":1,"PacketLength":null,"Channels":null,"SampleRate":null,"IsDefault":true,"IsForced":false,"Height":816,"Width":1920,"AverageFrameRate":23.975454,"RealFrameRate":23.975454,"Profile":"Main","Type":1,"AspectRatio":"2.35:1","Index":0,"Score":null,"IsExternal":false,"DeliveryMethod":null,"DeliveryUrl":null,"IsExternalUrl":null,"IsTextSubtitleStream":false,"SupportsExternalStream":false,"Path":null,"PixelFormat":"yuv420p","Level":41,"IsAnamorphic":null},{"Codec":"dts","CodecTag":null,"Language":"spa","ColorRange":null,"ColorSpace":null,"ColorTransfer":null,"ColorPrimaries":null,"Comment":null,"TimeBase":"1/1000","CodecTimeBase":"1/48000","Title":"[www.newpct1.com]","VideoRange":null,"localizedUndefined":null,"localizedDefault":null,"localizedForced":null,"DisplayTitle":"[www.newpct1.com] - Spa - DTS - 5.1 - Default","NalLengthSize":null,"IsInterlaced":false,"IsAVC":null,"ChannelLayout":"5.1","BitRate":1536000,"BitDepth":null,"RefFrames":null,"PacketLength":null,"Channels":6,"SampleRate":48000,"IsDefault":true,"IsForced":false,"Height":null,"Width":null,"AverageFrameRate":null,"RealFrameRate":null,"Profile":"DTS","Type":0,"AspectRatio":null,"Index":1,"Score":null,"IsExternal":false,"DeliveryMethod":null,"DeliveryUrl":null,"IsExternalUrl":null,"IsTextSubtitleStream":false,"SupportsExternalStream":false,"Path":null,"PixelFormat":null,"Level":0,"IsAnamorphic":null},{"Codec":"ac3","CodecTag":null,"Language":"spa","ColorRange":null,"ColorSpace":null,"ColorTransfer":null,"ColorPrimaries":null,"Comment":null,"TimeBase":"1/1000","CodecTimeBase":"1/48000","Title":"[www.newpct1.com]","VideoRange":null,"localizedUndefined":null,"localizedDefault":null,"localizedForced":null,"DisplayTitle":"[www.newpct1.com] - Spa - Dolby Digital - 5.1","NalLengthSize":null,"IsInterlaced":false,"IsAVC":null,"ChannelLayout":"5.1","BitRate":640000,"BitDepth":null,"RefFrames":null,"PacketLength":null,"Channels":6,"SampleRate":48000,"IsDefault":false,"IsForced":false,"Height":null,"Width":null,"AverageFrameRate":null,"RealFrameRate":null,"Profile":null,"Type":0,"AspectRatio":null,"Index":2,"Score":null,"IsExternal":false,"DeliveryMethod":null,"DeliveryUrl":null,"IsExternalUrl":null,"IsTextSubtitleStream":false,"SupportsExternalStream":false,"Path":null,"PixelFormat":null,"Level":0,"IsAnamorphic":null},{"Codec":"ac3","CodecTag":null,"Language":"eng","ColorRange":null,"ColorSpace":null,"ColorTransfer":null,"ColorPrimaries":null,"Comment":null,"TimeBase":"1/1000","CodecTimeBase":"1/48000","Title":"[www.newpct1.com]","VideoRange":null,"localizedUndefined":null,"localizedDefault":null,"localizedForced":null,"DisplayTitle":"[www.newpct1.com] - Eng - Dolby Digital - 5.1","NalLengthSize":null,"IsInterlaced":false,"IsAVC":null,"ChannelLayout":"5.1","BitRate":640000,"BitDepth":null,"RefFrames":null,"PacketLength":null,"Channels":6,"SampleRate":48000,"IsDefault":false,"IsForced":false,"Height":null,"Width":null,"AverageFrameRate":null,"RealFrameRate":null,"Profile":null,"Type":0,"AspectRatio":null,"Index":3,"Score":null,"IsExternal":false,"DeliveryMethod":null,"DeliveryUrl":null,"IsExternalUrl":null,"IsTextSubtitleStream":false,"SupportsExternalStream":false,"Path":null,"PixelFormat":null,"Level":0,"IsAnamorphic":null},{"Codec":"subrip","CodecTag":null,"Language":"eng","ColorRange":null,"ColorSpace":null,"ColorTransfer":null,"ColorPrimaries":null,"Comment":null,"TimeBase":"1/1000","CodecTimeBase":"0/1","Title":"[www.newpct1.com]","VideoRange":null,"localizedUndefined":"Undefined","localizedDefault":"Default","localizedForced":"Forced","DisplayTitle":"[www.newpct1.com] - Eng","NalLengthSize":null,"IsInterlaced":false,"IsAVC":null,"ChannelLayout":null,"BitRate":null,"BitDepth":null,"RefFrames":null,"PacketLength":null,"Channels":null,"SampleRate":null,"IsDefault":false,"IsForced":false,"Height":null,"Width":null,"AverageFrameRate":null,"RealFrameRate":null,"Profile":null,"Type":2,"AspectRatio":null,"Index":4,"Score":null,"IsExternal":false,"DeliveryMethod":null,"DeliveryUrl":null,"IsExternalUrl":null,"IsTextSubtitleStream":true,"SupportsExternalStream":true,"Path":null,"PixelFormat":null,"Level":0,"IsAnamorphic":null},{"Codec":"subrip","CodecTag":null,"Language":"spa","ColorRange":null,"ColorSpace":null,"ColorTransfer":null,"ColorPrimaries":null,"Comment":null,"TimeBase":"1/1000","CodecTimeBase":"0/1","Title":"[www.newpct1.com]","VideoRange":null,"localizedUndefined":"Undefined","localizedDefault":"Default","localizedForced":"Forced","DisplayTitle":"[www.newpct1.com] - Spa","NalLengthSize":null,"IsInterlaced":false,"IsAVC":null,"ChannelLayout":null,"BitRate":null,"BitDepth":null,"RefFrames":null,"PacketLength":null,"Channels":null,"SampleRate":null,"IsDefault":false,"IsForced":false,"Height":null,"Width":null,"AverageFrameRate":null,"RealFrameRate":null,"Profile":null,"Type":2,"AspectRatio":null,"Index":5,"Score":null,"IsExternal":false,"DeliveryMethod":null,"DeliveryUrl":null,"IsExternalUrl":null,"IsTextSubtitleStream":true,"SupportsExternalStream":true,"Path":null,"PixelFormat":null,"Level":0,"IsAnamorphic":null},{"Codec":"subrip","CodecTag":null,"Language":"spa","ColorRange":null,"ColorSpace":null,"ColorTransfer":null,"ColorPrimaries":null,"Comment":null,"TimeBase":"1/1000","CodecTimeBase":"0/1","Title":"[www.newpct1.com]","VideoRange":null,"localizedUndefined":"Undefined","localizedDefault":"Default","localizedForced":"Forced","DisplayTitle":"[www.newpct1.com] - Spa","NalLengthSize":null,"IsInterlaced":false,"IsAVC":null,"ChannelLayout":null,"BitRate":null,"BitDepth":null,"RefFrames":null,"PacketLength":null,"Channels":null,"SampleRate":null,"IsDefault":false,"IsForced":false,"Height":null,"Width":null,"AverageFrameRate":null,"RealFrameRate":null,"Profile":null,"Type":2,"AspectRatio":null,"Index":6,"Score":null,"IsExternal":false,"DeliveryMethod":null,"DeliveryUrl":null,"IsExternalUrl":null,"IsTextSubtitleStream":true,"SupportsExternalStream":true,"Path":null,"PixelFormat":null,"Level":0,"IsAnamorphic":null},{"Codec":"subrip","CodecTag":null,"Language":"spa","ColorRange":null,"ColorSpace":null,"ColorTransfer":null,"ColorPrimaries":null,"Comment":null,"TimeBase":"1/1000","CodecTimeBase":"0/1","Title":"[www.newpct1.com]","VideoRange":null,"localizedUndefined":"Undefined","localizedDefault":"Default","localizedForced":"Forced","DisplayTitle":"[www.newpct1.com] - Spa - Default - Forced","NalLengthSize":null,"IsInterlaced":false,"IsAVC":null,"ChannelLayout":null,"BitRate":null,"BitDepth":null,"RefFrames":null,"PacketLength":null,"Channels":null,"SampleRate":null,"IsDefault":true,"IsForced":true,"Height":null,"Width":null,"AverageFrameRate":null,"RealFrameRate":null,"Profile":null,"Type":2,"AspectRatio":null,"Index":7,"Score":null,"IsExternal":false,"DeliveryMethod":null,"DeliveryUrl":null,"IsExternalUrl":null,"IsTextSubtitleStream":true,"SupportsExternalStream":true,"Path":null,"PixelFormat":null,"Level":0,"IsAnamorphic":null}],"MediaAttachments":[],"Formats":[],"Bitrate":11107722,"Timestamp":null,"RequiredHttpHeaders":{},"TranscodingUrl":null,"TranscodingSubProtocol":null,"TranscodingContainer":null,"AnalyzeDurationMs":null,"DefaultAudioStreamIndex":null,"DefaultSubtitleStreamIndex":null}
  4.  
  5. /usr/lib/jellyfin-ffmpeg/ffmpeg -ss 00:00:12.000 -hwaccel vaapi -noaccurate_seek -hwaccel_output_format vaapi -vaapi_device /dev/dri/renderD128 -i file:"/media/Peliculas/Memento.mkv" -map_metadata -1 -map_chapters -1 -threads 0 -map 0:0 -map 0:1 -map -0:s -codec:v:0 h264_vaapi -b:v 7360000 -maxrate 7360000 -bufsize 14720000 -profile:v:0 high -level 41 -force_key_frames:0 "expr:gte(t,12+n_forced*3)" -vf "format=nv12|vaapi,hwupload,scale_vaapi=format=nv12" -start_at_zero -vsync -1 -codec:a:0 aac -ac 6 -ab 640000 -copyts -avoid_negative_ts disabled -max_muxing_queue_size 2048 -f hls -max_delay 5000000 -hls_time 3 -hls_segment_type mpegts -start_number 4 -hls_segment_filename "/config/transcodes/734c32cf06d12c57dfe5b95bcfc1ce1f%d.ts" -hls_playlist_type vod -hls_list_size 0 -y "/config/transcodes/734c32cf06d12c57dfe5b95bcfc1ce1f.m3u8"
  6.  
  7.  
  8. ffmpeg version 4.3.2-Jellyfin Copyright (c) 2000-2021 the FFmpeg developers
  9. built with gcc 8 (Debian 8.3.0-6)
  10. configuration: --prefix=/usr/lib/jellyfin-ffmpeg --target-os=linux --extra-version=Jellyfin --disable-doc --disable-ffplay --disable-shared --disable-libxcb --disable-sdl2 --disable-xlib --enable-gpl --enable-version3 --enable-static --enable-libfontconfig --enable-fontconfig --enable-gmp --enable-gnutls --enable-libass --enable-libbluray --enable-libdrm --enable-libfreetype --enable-libfribidi --enable-libmp3lame --enable-libopus --enable-libtheora --enable-libvorbis --enable-libdav1d --enable-libwebp --enable-libvpx --enable-libx264 --enable-libx265 --enable-libzvbi --enable-libzimg --arch=amd64 --enable-opencl --enable-vaapi --enable-amf --enable-libmfx --enable-vdpau --enable-cuda --enable-cuda-llvm --enable-cuvid --enable-nvenc --enable-nvdec --enable-ffnvcodec
  11. libavutil 56. 51.100 / 56. 51.100
  12. libavcodec 58. 91.100 / 58. 91.100
  13. libavformat 58. 45.100 / 58. 45.100
  14. libavdevice 58. 10.100 / 58. 10.100
  15. libavfilter 7. 85.100 / 7. 85.100
  16. libswscale 5. 7.100 / 5. 7.100
  17. libswresample 3. 7.100 / 3. 7.100
  18. libpostproc 55. 7.100 / 55. 7.100
  19. Input #0, matroska,webm, from 'file:/media/Peliculas/Memento.mkv':
  20. Metadata:
  21. creation_time : 2015-01-03T09:25:03.000000Z
  22. encoder : libebml v1.3.0 + libmatroska v1.4.1
  23. TITLE : Memento (2000)
  24. Duration: 01:53:26.63, start: 0.000000, bitrate: 8291 kb/s
  25. Chapter #0:0: start 0.000000, end 385.797000
  26. Metadata:
  27. title : Chapter 1
  28. Chapter #0:1: start 385.797000, end 666.452000
  29. Metadata:
  30. title : Chapter 2
  31. Chapter #0:2: start 666.452000, end 973.092000
  32. Metadata:
  33. title : Chapter 3
  34. Chapter #0:3: start 973.092000, end 1337.831000
  35. Metadata:
  36. title : Chapter 4
  37. Chapter #0:4: start 1337.831000, end 1710.579000
  38. Metadata:
  39. title : Chapter 5
  40. Chapter #0:5: start 1710.579000, end 2366.818000
  41. Metadata:
  42. title : Chapter 6
  43. Chapter #0:6: start 2366.818000, end 2936.762000
  44. Metadata:
  45. title : Chapter 7
  46. Chapter #0:7: start 2936.762000, end 3761.670000
  47. Metadata:
  48. title : Chapter 8
  49. Chapter #0:8: start 3761.670000, end 4638.128000
  50. Metadata:
  51. title : Chapter 9
  52. Chapter #0:9: start 4638.128000, end 4904.269000
  53. Metadata:
  54. title : Chapter 11
  55. Chapter #0:10: start 4904.269000, end 5193.350000
  56. Metadata:
  57. title : Chapter 12
  58. Chapter #0:11: start 5193.350000, end 5638.962000
  59. Metadata:
  60. title : Chapter 13
  61. Chapter #0:12: start 5638.962000, end 6048.663000
  62. Metadata:
  63. title : Chapter 14
  64. Chapter #0:13: start 6048.663000, end 6558.547000
  65. Metadata:
  66. title : Chapter 15
  67. Chapter #0:14: start 6558.547000, end 6806.628000
  68. Metadata:
  69. title : Chapter 16
  70. Stream #0:0(eng): Video: h264 (Main), yuv420p(tv, bt709, progressive), 1920x816 [SAR 1:1 DAR 40:17], 23.98 fps, 23.98 tbr, 1k tbn, 180k tbc (default)
  71. Metadata:
  72. title : Memento [www.newpct1.com]
  73. BPS : 5499569
  74. BPS-eng : 5499569
  75. DURATION : 01:53:26.628000000
  76. DURATION-eng : 01:53:26.628000000
  77. NUMBER_OF_FRAMES: 163192
  78. NUMBER_OF_FRAMES-eng: 163192
  79. NUMBER_OF_BYTES : 4679190365
  80. NUMBER_OF_BYTES-eng: 4679190365
  81. _STATISTICS_WRITING_APP: mkvmerge v7.3.0 ('Nouages') 64bit built on Oct 22 2014 18:53:34
  82. _STATISTICS_WRITING_APP-eng: mkvmerge v7.3.0 ('Nouages') 64bit built on Oct 22 2014 18:53:34
  83. _STATISTICS_WRITING_DATE_UTC: 2015-01-03 09:25:03
  84. _STATISTICS_WRITING_DATE_UTC-eng: 2015-01-03 09:25:03
  85. _STATISTICS_TAGS: BPS DURATION NUMBER_OF_FRAMES NUMBER_OF_BYTES
  86. _STATISTICS_TAGS-eng: BPS DURATION NUMBER_OF_FRAMES NUMBER_OF_BYTES
  87. Stream #0:1(spa): Audio: dts (DTS), 48000 Hz, 5.1(side), fltp, 1536 kb/s (default)
  88. Metadata:
  89. title : [www.newpct1.com]
  90. BPS : 1509000
  91. BPS-eng : 1509000
  92. DURATION : 01:53:26.443000000
  93. DURATION-eng : 01:53:26.443000000
  94. NUMBER_OF_FRAMES: 638104
  95. NUMBER_OF_FRAMES-eng: 638104
  96. NUMBER_OF_BYTES : 1283865316
  97. NUMBER_OF_BYTES-eng: 1283865316
  98. _STATISTICS_WRITING_APP: mkvmerge v7.3.0 ('Nouages') 64bit built on Oct 22 2014 18:53:34
  99. _STATISTICS_WRITING_APP-eng: mkvmerge v7.3.0 ('Nouages') 64bit built on Oct 22 2014 18:53:34
  100. _STATISTICS_WRITING_DATE_UTC: 2015-01-03 09:25:03
  101. _STATISTICS_WRITING_DATE_UTC-eng: 2015-01-03 09:25:03
  102. _STATISTICS_TAGS: BPS DURATION NUMBER_OF_FRAMES NUMBER_OF_BYTES
  103. _STATISTICS_TAGS-eng: BPS DURATION NUMBER_OF_FRAMES NUMBER_OF_BYTES
  104. Stream #0:2(spa): Audio: ac3, 48000 Hz, 5.1(side), fltp, 640 kb/s
  105. Metadata:
  106. title : [www.newpct1.com]
  107. BPS : 640000
  108. BPS-eng : 640000
  109. DURATION : 01:53:26.432000000
  110. DURATION-eng : 01:53:26.432000000
  111. NUMBER_OF_FRAMES: 212701
  112. NUMBER_OF_FRAMES-eng: 212701
  113. NUMBER_OF_BYTES : 544514560
  114. NUMBER_OF_BYTES-eng: 544514560
  115. _STATISTICS_WRITING_APP: mkvmerge v7.3.0 ('Nouages') 64bit built on Oct 22 2014 18:53:34
  116. _STATISTICS_WRITING_APP-eng: mkvmerge v7.3.0 ('Nouages') 64bit built on Oct 22 2014 18:53:34
  117. _STATISTICS_WRITING_DATE_UTC: 2015-01-03 09:25:03
  118. _STATISTICS_WRITING_DATE_UTC-eng: 2015-01-03 09:25:03
  119. _STATISTICS_TAGS: BPS DURATION NUMBER_OF_FRAMES NUMBER_OF_BYTES
  120. _STATISTICS_TAGS-eng: BPS DURATION NUMBER_OF_FRAMES NUMBER_OF_BYTES
  121. Stream #0:3(eng): Audio: ac3, 48000 Hz, 5.1(side), fltp, 640 kb/s
  122. Metadata:
  123. title : [www.newpct1.com]
  124. BPS : 640000
  125. BPS-eng : 640000
  126. DURATION : 01:53:26.400000000
  127. DURATION-eng : 01:53:26.400000000
  128. NUMBER_OF_FRAMES: 212700
  129. NUMBER_OF_FRAMES-eng: 212700
  130. NUMBER_OF_BYTES : 544512000
  131. NUMBER_OF_BYTES-eng: 544512000
  132. _STATISTICS_WRITING_APP: mkvmerge v7.3.0 ('Nouages') 64bit built on Oct 22 2014 18:53:34
  133. _STATISTICS_WRITING_APP-eng: mkvmerge v7.3.0 ('Nouages') 64bit built on Oct 22 2014 18:53:34
  134. _STATISTICS_WRITING_DATE_UTC: 2015-01-03 09:25:03
  135. _STATISTICS_WRITING_DATE_UTC-eng: 2015-01-03 09:25:03
  136. _STATISTICS_TAGS: BPS DURATION NUMBER_OF_FRAMES NUMBER_OF_BYTES
  137. _STATISTICS_TAGS-eng: BPS DURATION NUMBER_OF_FRAMES NUMBER_OF_BYTES
  138. Stream #0:4(eng): Subtitle: subrip
  139. Metadata:
  140. title : [www.newpct1.com]
  141. BPS : 63
  142. BPS-eng : 63
  143. DURATION : 01:47:48.128000000
  144. DURATION-eng : 01:47:48.128000000
  145. NUMBER_OF_FRAMES: 1225
  146. NUMBER_OF_FRAMES-eng: 1225
  147. NUMBER_OF_BYTES : 51162
  148. NUMBER_OF_BYTES-eng: 51162
  149. _STATISTICS_WRITING_APP: mkvmerge v7.3.0 ('Nouages') 64bit built on Oct 22 2014 18:53:34
  150. _STATISTICS_WRITING_APP-eng: mkvmerge v7.3.0 ('Nouages') 64bit built on Oct 22 2014 18:53:34
  151. _STATISTICS_WRITING_DATE_UTC: 2015-01-03 09:25:03
  152. _STATISTICS_WRITING_DATE_UTC-eng: 2015-01-03 09:25:03
  153. _STATISTICS_TAGS: BPS DURATION NUMBER_OF_FRAMES NUMBER_OF_BYTES
  154. _STATISTICS_TAGS-eng: BPS DURATION NUMBER_OF_FRAMES NUMBER_OF_BYTES
  155. Stream #0:5(spa): Subtitle: subrip
  156. Metadata:
  157. title : [www.newpct1.com]
  158. BPS : 59
  159. BPS-eng : 59
  160. DURATION : 01:47:46.257000000
  161. DURATION-eng : 01:47:46.257000000
  162. NUMBER_OF_FRAMES: 1296
  163. NUMBER_OF_FRAMES-eng: 1296
  164. NUMBER_OF_BYTES : 47986
  165. NUMBER_OF_BYTES-eng: 47986
  166. _STATISTICS_WRITING_APP: mkvmerge v7.3.0 ('Nouages') 64bit built on Oct 22 2014 18:53:34
  167. _STATISTICS_WRITING_APP-eng: mkvmerge v7.3.0 ('Nouages') 64bit built on Oct 22 2014 18:53:34
  168. _STATISTICS_WRITING_DATE_UTC: 2015-01-03 09:25:03
  169. _STATISTICS_WRITING_DATE_UTC-eng: 2015-01-03 09:25:03
  170. _STATISTICS_TAGS: BPS DURATION NUMBER_OF_FRAMES NUMBER_OF_BYTES
  171. _STATISTICS_TAGS-eng: BPS DURATION NUMBER_OF_FRAMES NUMBER_OF_BYTES
  172. Stream #0:6(spa): Subtitle: subrip
  173. Metadata:
  174. title : [www.newpct1.com]
  175. BPS : 0
  176. BPS-eng : 0
  177. DURATION : 01:40:08.710000000
  178. DURATION-eng : 01:40:08.710000000
  179. NUMBER_OF_FRAMES: 9
  180. NUMBER_OF_FRAMES-eng: 9
  181. NUMBER_OF_BYTES : 207
  182. NUMBER_OF_BYTES-eng: 207
  183. _STATISTICS_WRITING_APP: mkvmerge v7.3.0 ('Nouages') 64bit built on Oct 22 2014 18:53:34
  184. _STATISTICS_WRITING_APP-eng: mkvmerge v7.3.0 ('Nouages') 64bit built on Oct 22 2014 18:53:34
  185. _STATISTICS_WRITING_DATE_UTC: 2015-01-03 09:25:03
  186. _STATISTICS_WRITING_DATE_UTC-eng: 2015-01-03 09:25:03
  187. _STATISTICS_TAGS: BPS DURATION NUMBER_OF_FRAMES NUMBER_OF_BYTES
  188. _STATISTICS_TAGS-eng: BPS DURATION NUMBER_OF_FRAMES NUMBER_OF_BYTES
  189. Stream #0:7(spa): Subtitle: subrip (default) (forced)
  190. Metadata:
  191. title : [www.newpct1.com]
  192. BPS : 26
  193. BPS-eng : 26
  194. DURATION : 00:00:13.169000000
  195. DURATION-eng : 00:00:13.169000000
  196. NUMBER_OF_FRAMES: 1
  197. NUMBER_OF_FRAMES-eng: 1
  198. NUMBER_OF_BYTES : 44
  199. NUMBER_OF_BYTES-eng: 44
  200. _STATISTICS_WRITING_APP: mkvmerge v7.3.0 ('Nouages') 64bit built on Oct 22 2014 18:53:34
  201. _STATISTICS_WRITING_APP-eng: mkvmerge v7.3.0 ('Nouages') 64bit built on Oct 22 2014 18:53:34
  202. _STATISTICS_WRITING_DATE_UTC: 2015-01-03 09:25:03
  203. _STATISTICS_WRITING_DATE_UTC-eng: 2015-01-03 09:25:03
  204. _STATISTICS_TAGS: BPS DURATION NUMBER_OF_FRAMES NUMBER_OF_BYTES
  205. _STATISTICS_TAGS-eng: BPS DURATION NUMBER_OF_FRAMES NUMBER_OF_BYTES
  206. Stream mapping:
  207. Stream #0:0 -> #0:0 (h264 (native) -> h264 (h264_vaapi))
  208. Stream #0:1 -> #0:1 (dts (dca) -> aac (native))
  209. Press [q] to stop, [?] for help
  210. Output #0, hls, to '/config/transcodes/734c32cf06d12c57dfe5b95bcfc1ce1f.m3u8':
  211. Metadata:
  212. encoder : Lavf58.45.100
  213. Stream #0:0: Video: h264 (h264_vaapi) (High), vaapi_vld, 1920x816 [SAR 1:1 DAR 40:17], q=-1--1, 7360 kb/s, 23.98 fps, 90k tbn, 23.98 tbc (default)
  214. Metadata:
  215. encoder : Lavc58.91.100 h264_vaapi
  216. Stream #0:1: Audio: aac (LC), 48000 Hz, 5.1, fltp, 640 kb/s (default)
  217. Metadata:
  218. encoder : Lavc58.91.100 aac
  219. [mpegts @ 0x56412dd4e180] H.264 bitstream malformed, no startcode found, use the video bitstream filter 'h264_mp4toannexb' to fix it ('-bsf:v h264_mp4toannexb' option with ffmpeg)
  220. av_interleaved_write_frame(): Invalid data found when processing input
  221. [hls @ 0x56412d6e5e00] Opening '/config/transcodes/734c32cf06d12c57dfe5b95bcfc1ce1f4.ts' for writing
  222. frame= 2 fps=0.0 q=-0.0 Lsize=N/A time=00:00:04.22 bitrate=N/A speed=70.4x
  223. video:0kB audio:27kB subtitle:0kB other streams:0kB global headers:0kB muxing overhead: unknown
  224. [aac @ 0x56412d693cc0] Qavg: 183.890
  225. Conversion failed!
Advertisement
RAW Paste Data Copied
Advertisement