GrabHD

Untitled

Mar 4th, 2020
87
Never
Not a member of Pastebin yet? Sign Up, it unlocks many cool features!
  1. Общее
  2. Уникальный идентификатор : 234040288969734889422322799938162240493 (0xB01285237008E9825A4AAEB32E25ABED)
  3. Полное имя : Guns_Akimbo.2019.AMZN.WEB-DL.1080p.mkv
  4. Формат : Matroska
  5. Версия формата : Version 4
  6. Размер файла : 6,96 Гбайт
  7. Продолжительность : 1 ч. 37 м.
  8. Общий поток : 10,2 Мбит/сек
  9. Дата кодирования : UTC 2020-03-04 07:51:51
  10. Программа кодирования : mkvmerge v23.0.0 ('The Bride Said No') 64-bit
  11. Библиотека кодирования : libebml v1.3.6 + libmatroska v1.4.9
  12.  
  13. Видео
  14. Идентификатор : 1
  15. Формат : AVC
  16. Формат/Информация : Advanced Video Codec
  17. Профиль формата : High@L4
  18. Настройки формата : CABAC / 4 Ref Frames
  19. Параметр CABAC формата : Да
  20. Параметр RefFrames формата : 4 кадра
  21. Идентификатор кодека : V_MPEG4/ISO/AVC
  22. Продолжительность : 1 ч. 37 м.
  23. Вид битрейта : Постоянный
  24. Битрейт : 8269 Кбит/сек
  25. Номинальный битрейт : 10000 Кбит/сек
  26. Ширина : 1920 пикселей
  27. Высота : 800 пикселей
  28. Соотношение сторон : 2,40:1
  29. Режим частоты кадров : Постоянный
  30. Частота кадров : 23,976 (24000/1001) кадра/сек
  31. Цветовое пространство : YUV
  32. Субдискретизация насыщенности : 4:2:0
  33. Битовая глубина : 8 бит
  34. Тип развёртки : Прогрессивная
  35. Бит/(Пиксели*Кадры) : 0.225
  36. Размер потока : 5,65 Гбайт (81%)
  37. Заголовок : Guns Akimbo
  38. Язык : English
  39. Default : Да
  40. Forced : Нет
  41. Цветовой диапазон : Limited
  42. Основные цвета : BT.709
  43. Характеристики трансфера : BT.709
  44. Коэффициенты матрицы : BT.709
  45.  
  46. Аудио #1
  47. Идентификатор : 2
  48. Формат : AC-3
  49. Формат/Информация : Audio Coding 3
  50. Коммерческое название : Dolby Digital
  51. Идентификатор кодека : A_AC3
  52. Продолжительность : 1 ч. 37 м.
  53. Вид битрейта : Постоянный
  54. Битрейт : 448 Кбит/сек
  55. Каналы : 6 каналов
  56. ChannelLayout : L R C LFE Ls Rs
  57. Частота : 48,0 КГц
  58. Частота кадров : 31,250 кадров/сек (1536 SPF)
  59. Метод сжатия : С потерями
  60. Размер потока : 313 Мбайт (4%)
  61. Заголовок : HDrezka Studio
  62. Язык : Russian
  63. ServiceKind : Complete Main
  64. Default : Да
  65. Forced : Нет
  66.  
  67. Аудио #2
  68. Идентификатор : 3
  69. Формат : E-AC-3
  70. Формат/Информация : Enhanced AC-3
  71. Коммерческое название : Dolby Digital Plus
  72. Идентификатор кодека : A_EAC3
  73. Продолжительность : 1 ч. 37 м.
  74. Вид битрейта : Постоянный
  75. Битрейт : 640 Кбит/сек
  76. Каналы : 6 каналов
  77. ChannelLayout : L R C LFE Ls Rs
  78. Частота : 48,0 КГц
  79. Частота кадров : 31,250 кадров/сек (1536 SPF)
  80. Метод сжатия : С потерями
  81. Размер потока : 448 Мбайт (6%)
  82. Заголовок : Mallorn
  83. Язык : Russian
  84. ServiceKind : Complete Main
  85. Default : Нет
  86. Forced : Нет
  87.  
  88. Аудио #3
  89. Идентификатор : 4
  90. Формат : AC-3
  91. Формат/Информация : Audio Coding 3
  92. Коммерческое название : Dolby Digital
  93. Идентификатор кодека : A_AC3
  94. Продолжительность : 1 ч. 37 м.
  95. Вид битрейта : Постоянный
  96. Битрейт : 192 Кбит/сек
  97. Каналы : 2 канала
  98. ChannelLayout : L R
  99. Частота : 48,0 КГц
  100. Частота кадров : 31,250 кадров/сек (1536 SPF)
  101. Метод сжатия : С потерями
  102. Размер потока : 134 Мбайт (2%)
  103. Заголовок : LakeFilms
  104. Язык : Russian
  105. ServiceKind : Complete Main
  106. Default : Нет
  107. Forced : Нет
  108.  
  109. Аудио #4
  110. Идентификатор : 5
  111. Формат : E-AC-3
  112. Формат/Информация : Enhanced AC-3
  113. Коммерческое название : Dolby Digital Plus
  114. Идентификатор кодека : A_EAC3
  115. Продолжительность : 1 ч. 37 м.
  116. Вид битрейта : Постоянный
  117. Битрейт : 640 Кбит/сек
  118. Каналы : 6 каналов
  119. ChannelLayout : L R C LFE Ls Rs
  120. Частота : 48,0 КГц
  121. Частота кадров : 31,250 кадров/сек (1536 SPF)
  122. Метод сжатия : С потерями
  123. Размер потока : 448 Мбайт (6%)
  124. Язык : English
  125. ServiceKind : Complete Main
  126. Default : Нет
  127. Forced : Нет
  128.  
  129. Текст #1
  130. Идентификатор : 6
  131. Формат : UTF-8
  132. Идентификатор кодека : S_TEXT/UTF8
  133. Идентификатор кодека/Информация : UTF-8 Plain Text
  134. Продолжительность : 1 ч. 27 м.
  135. Битрейт : 5 бит/сек
  136. ElementCount : 52
  137. Размер потока : 3,69 Кбайт (0%)
  138. Заголовок : Forced
  139. Язык : Russian
  140. Default : Да
  141. Forced : Нет
  142.  
  143. Текст #2
  144. Идентификатор : 7
  145. Формат : UTF-8
  146. Идентификатор кодека : S_TEXT/UTF8
  147. Идентификатор кодека/Информация : UTF-8 Plain Text
  148. Продолжительность : 1 ч. 28 м.
  149. Битрейт : 108 бит/сек
  150. ElementCount : 1270
  151. Размер потока : 70,5 Кбайт (0%)
  152. Заголовок : Chrevodoll
  153. Язык : Russian
  154. Default : Нет
  155. Forced : Нет
  156.  
  157. Текст #3
  158. Идентификатор : 8
  159. Формат : UTF-8
  160. Идентификатор кодека : S_TEXT/UTF8
  161. Идентификатор кодека/Информация : UTF-8 Plain Text
  162. Продолжительность : 1 ч. 29 м.
  163. Битрейт : 66 бит/сек
  164. ElementCount : 1363
  165. Размер потока : 43,6 Кбайт (0%)
  166. Язык : English
  167. Default : Нет
  168. Forced : Нет
  169.  
  170. Текст #4
  171. Идентификатор : 9
  172. Формат : UTF-8
  173. Идентификатор кодека : S_TEXT/UTF8
  174. Идентификатор кодека/Информация : UTF-8 Plain Text
  175. Продолжительность : 1 ч. 29 м.
  176. Битрейт : 72 бит/сек
  177. ElementCount : 1639
  178. Размер потока : 47,6 Кбайт (0%)
  179. Заголовок : SDH
  180. Язык : English
  181. Default : Нет
  182. Forced : Нет
  183.  
  184. Меню
  185. 00:00:00.000 : en:1
  186. 00:04:15.000 : en:2
  187. 00:12:40.000 : en:3
  188. 00:22:38.000 : en:4
  189. 00:31:55.000 : en:5
  190. 00:41:14.000 : en:6
  191. 00:51:44.000 : en:7
  192. 01:01:40.000 : en:8
  193. 01:10:00.000 : en:9
  194. 01:21:25.000 : en:10
  195. 01:30:08.000 : en:11
RAW Paste Data