Guest User

Untitled

a guest
Jul 22nd, 2011
263
Never
Not a member of Pastebin yet? Sign Up, it unlocks many cool features!
  1. File name : 00018
  2. File extension : m2ts
  3. Format : BDAV
  4. Format : BDAV
  5. Format/Info : Blu-ray Video
  6. Format/Extensions usually used : m2ts
  7. Commercial name : BDAV
  8. Codec : BDAV
  9. Codec : BDAV
  10. Codec/Info : Blu-ray Video
  11. Codec/Extensions usually used : m2ts
  12. File size : 21589204992
  13. File size : 20.1 GiB
  14. File size : 20 GiB
  15. File size : 20 GiB
  16. File size : 20.1 GiB
  17. File size : 20.11 GiB
  18. Duration : 5572345.248074
  19. Duration : 1h 32mn
  20. Duration : 1h 32mn 52s 345ms
  21. Duration : 1h 32mn
  22. Duration : 01:32:52.345
  23. Overall bit rate : 30994765
  24. Overall bit rate : 31.0 Mbps
  25. Maximum Overall bit rate : 48000000
  26. Maximum Overall bit rate : 48.0 Mbps
  27. File creation date : UTC 2011-07-13 04:09:23.264
  28. File creation date (local) : 2011-07-13 00:09:23.264
  29. File last modification date : UTC 2011-07-11 05:30:52.163
  30. File last modification date (loc : 2011-07-11 01:30:52.163
  31.  
  32. Video
  33. Count : 203
  34. Count of stream of this kind : 1
  35. Kind of stream : Video
  36. Kind of stream : Video
  37. Stream identifier : 0
  38. ID : 4113
  39. ID : 4113 (0x1011)
  40. Menu ID : 1
  41. Menu ID : 1 (0x1)
  42. Format : AVC
  43. Format/Info : Advanced Video Codec
  44. Format/Url : http://developers.videolan.org/x264.html
  45. Commercial name : AVC
  46. Format profile : High@L4.1
  47. Format settings : CABAC / 4 Ref Frames
  48. Format settings, CABAC : Yes
  49. Format settings, CABAC : Yes
  50. Format settings, ReFrames : 4
  51. Format settings, ReFrames : 4 frames
  52. Internet media type : video/H264
  53. Codec ID : 27
  54. Codec : AVC
  55. Codec : AVC
  56. Codec/Family : AVC
  57. Codec/Info : Advanced Video Codec
  58. Codec/Url : http://developers.videolan.org/x264.html
  59. Codec profile : High@L4.1
  60. Codec settings : CABAC / 4 Ref Frames
  61. Codec settings, CABAC : Yes
  62. Codec_Settings_RefFrames : 4
  63. Duration : 5571920
  64. Duration : 1h 32mn
  65. Duration : 1h 32mn 51s 920ms
  66. Duration : 1h 32mn
  67. Duration : 01:32:51.920
  68. Bit rate mode : VBR
  69. Bit rate mode : Variable
  70. Bit rate : 21871922
  71. Bit rate : 21.9 Mbps
  72. Maximum bit rate : 25999872
  73. Maximum bit rate : 26.0 Mbps
  74. Width : 1920
  75. Width : 1 920 pixels
  76. Height : 1080
  77. Height : 1 080 pixels
  78. Pixel aspect ratio : 1.000
  79. Display aspect ratio : 1.778
  80. Display aspect ratio : 16:9
  81. Frame rate : 25.000
  82. Frame rate : 25.000 fps
  83. Frame count : 139298
  84. Standard : PAL
  85. Resolution : 8
  86. Resolution : 8 bits
  87. Colorimetry : 4:2:0
  88. Color space : YUV
  89. Chroma subsampling : 4:2:0
  90. Bit depth : 8
  91. Bit depth : 8 bits
  92. Scan type : MBAFF
  93. Scan type : MBAFF
  94. Interlacement : MBAFF
  95. Interlacement : MBAFF
  96. Bits/(Pixel*Frame) : 0.422
  97. Delay : 540.000
  98. Delay : 540ms
  99. Delay : 540ms
  100. Delay : 540ms
  101. Delay : 00:00:00.540
  102. Delay, origin : Container
  103. Delay, origin : Container
  104. Stream size : 15233575167
  105. Stream size : 14.2 GiB (71%)
  106. Stream size : 14 GiB
  107. Stream size : 14 GiB
  108. Stream size : 14.2 GiB
  109. Stream size : 14.19 GiB
  110. Stream size : 14.2 GiB (71%)
  111. Proportion of this stream : 0.70561
  112. Buffer size : 3749952
  113. Color primaries : BT.709-5, BT.1361, IEC 61966-2-4, SMPTE RP177
  114. Transfer characteristics : BT.709-5, BT.1361
  115. Matrix coefficients : BT.709-5, BT.1361, IEC 61966-2-4 709, SMPTE RP177
RAW Paste Data

Adblocker detected! Please consider disabling it...

We've detected AdBlock Plus or some other adblocking software preventing Pastebin.com from fully loading.

We don't have any obnoxious sound, or popup ads, we actively block these annoying types of ads!

Please add Pastebin.com to your ad blocker whitelist or disable your adblocking software.

×