SHARE
TWEET

Untitled

grap3_ap3 Dec 31st, 2011 45 Never
Not a member of Pastebin yet? Sign Up, it unlocks many cool features!
  1. ./ffmpeg -i /home/me/out-1.ogv -b 1500k -acodec libmp3lame -vcodec libx264 out.mkv
  2. ffmpeg version git-2011-12-30-bace181, Copyright (c) 2000-2011 the FFmpeg developers
  3.   built on Dec 30 2011 15:58:09 with gcc 4.4.3
  4.   configuration: --enable-gpl --enable-libfaac --enable-libmp3lame --enable-libopencore-amrnb --enable-libopencore-amrwb --enable-libtheora --enable-libvorbis --enable-libx264 --enable-nonfree --enable-postproc --enable-version3 --enable-x11grab
  5.   libavutil      51. 33.100 / 51. 33.100
  6.   libavcodec     53. 49.100 / 53. 49.100
  7.   libavformat    53. 29.100 / 53. 29.100
  8.   libavdevice    53.  4.100 / 53.  4.100
  9.   libavfilter     2. 55.100 /  2. 55.100
  10.   libswscale      2.  1.100 /  2.  1.100
  11.   libswresample   0.  5.100 /  0.  5.100
  12.   libpostproc    51.  2.100 / 51.  2.100
  13. Input #0, ogg, from '/home/xanzibar/out-1.ogv':
  14.   Duration: 00:00:11.42, start: 0.000000, bitrate: 3380 kb/s
  15.     Stream #0:0: Data: none
  16.     Stream #0:1: Video: theora, yuv420p, 3360x1040 [SAR 1:1 DAR 42:13], 50 fps, 50 tbr, 50 tbn, 50 tbc
  17.     Stream #0:2: Audio: vorbis, 22050 Hz, mono, s16, 89 kb/s
  18. Please use -b:a or -b:v, -b is ambiguous
  19. [buffer @ 0x9e5f600] w:3360 h:1040 pixfmt:yuv420p tb:1/1000000 sar:1/1 sws_param:
  20. [libx264 @ 0x9ac4bc0] using SAR=1/1
  21. [libx264 @ 0x9ac4bc0] using cpu capabilities: none!
  22. [libx264 @ 0x9ac4bc0] profile High, level 5.1
  23. [libx264 @ 0x9ac4bc0] 264 - core 120 r2120 0c7dab9 - H.264/MPEG-4 AVC codec - Copyleft 2003-2011 - http://www.videolan.org/x264.html - options: cabac=1 ref=3 deblock=1:0:0 analyse=0x3:0x113 me=hex subme=7 psy=1 psy_rd=1.00:0.00 mixed_ref=1 me_range=16 chroma_me=1 trellis=1 8x8dct=1 cqm=0 deadzone=21,11 fast_pskip=1 chroma_qp_offset=-2 threads=6 sliced_threads=0 nr=0 decimate=1 interlaced=0 bluray_compat=0 constrained_intra=0 bframes=3 b_pyramid=2 b_adapt=1 b_bias=0 direct=1 weightb=1 open_gop=0 weightp=2 keyint=250 keyint_min=25 scenecut=40 intra_refresh=0 rc_lookahead=40 rc=abr mbtree=1 bitrate=1500 ratetol=1.0 qcomp=0.60 qpmin=0 qpmax=69 qpstep=4 ip_ratio=1.40 aq=1:1.00
  24. Output #0, matroska, to 'out.mkv':
  25.   Metadata:
  26.     encoder         : Lavf53.29.100
  27.     Stream #0:0: Video: h264, yuv420p, 3360x1040 [SAR 1:1 DAR 42:13], q=-1--1, 1500 kb/s, 1k tbn, 50 tbc
  28.     Stream #0:1: Audio: mp3, 22050 Hz, mono, s16, 128 kb/s
  29. Stream mapping:
  30.   Stream #0:1 -> #0:0 (theora -> libx264)
  31.   Stream #0:2 -> #0:1 (vorbis -> libmp3lame)
  32. Press [q] to stop, [?] for help
  33. frame=   13 fps=  0 q=0.0 size=       1kB time=00:00:00.00 bitrate=   0.0kbits/sframe=   29 fps= 29 q=0.0 size=       1kB time=00:00:00.00 bitrate=   0.0kbits/sframe=   43 fps= 28 q=0.0 size=       1kB time=00:00:00.00 bitrate=   0.0kbits/sframe=   47 fps= 12 q=0.0 size=       1kB time=00:00:00.00 bitrate=   0.0kbits/sframe=   52 fps= 10 q=44.0 size=      33kB time=00:00:00.00 bitrate=   0.0kbits/frame=   57 fps= 10 q=52.0 size=      33kB time=00:00:00.10 bitrate=2672.6kbits/frame=   64 fps= 10 q=49.0 size=      33kB time=00:00:00.24 bitrate=1113.6kbits/frame=   71 fps= 10 q=45.0 size=      65kB time=00:00:00.38 bitrate=1393.2kbits/frame=   78 fps= 10 q=40.0 size=      65kB time=00:00:00.52 bitrate=1018.1kbits/frame=   79 fps= 10 q=41.0 size=      65kB time=00:00:00.54 bitrate= 980.4kbits/frame=   85 fps= 10 q=36.0 size=      65kB time=00:00:00.66 bitrate= 802.1kbits/frame=   88 fps= 10 q=36.0 size=      97kB time=00:00:00.72 bitrate=1099.4kbits/frame=   91 fps=  9 q=38.0 size=      97kB time=00:00:00.78 bitrate=1014.8kbits/frame=   95 fps=  9 q=38.0 size=      97kB time=00:00:00.92 bitrate= 860.4kbits/frame=   99 fps=  9 q=38.0 size=     129kB time=00:00:01.00 bitrate=1053.7kbits/frame=  104 fps=  9 q=38.0 size=     161kB time=00:00:01.10 bitrate=1196.2kbits/frame=  108 fps=  9 q=37.0 size=     161kB time=00:00:01.32 bitrate= 996.8kbits/frame=  112 fps=  9 q=36.0 size=     161kB time=00:00:01.40 bitrate= 939.9kbits/frame=  116 fps=  8 q=36.0 size=     193kB time=00:00:01.48 bitrate=1066.2kbits/frame=  119 fps=  8 q=35.0 size=     225kB time=00:00:01.54 bitrate=1194.9kbits/frame=  124 fps=  8 q=36.0 size=     225kB time=00:00:01.64 bitrate=1122.0kbits/frame=  128 fps=  8 q=36.0 size=     257kB time=00:00:01.74 bitrate=1208.2kbits/frame=  132 fps=  8 q=34.0 size=     257kB time=00:00:01.82 bitrate=1155.1kbits/frame=  137 fps=  8 q=31.0 size=     257kB time=00:00:01.92 bitrate=1094.9kbits/frame=  140 fps=  8 q=32.0 size=     321kB time=00:00:01.98 bitrate=1326.5kbits/frame=  146 fps=  8 q=32.0 size=     353kB time=00:00:02.68 bitrate=1077.9kbits/frame=  149 fps=  8 q=32.0 size=     353kB time=00:00:02.74 bitrate=1054.3kbits/frame=  154 fps=  8 q=32.0 size=     353kB time=00:00:02.84 bitrate=1017.1kbits/frame=  157 fps=  8 q=32.0 size=     353kB time=00:00:02.90 bitrate= 996.1kbits/frame=  164 fps=  8 q=30.0 size=     385kB time=00:00:03.98 bitrate= 791.7kbits/frame=  168 fps=  7 q=26.0 size=     513kB time=00:00:04.06 bitrate=1034.3kbits/frame=  174 fps=  7 q=26.0 size=     528kB time=00:00:05.14 bitrate= 841.2kbits/frame=  177 fps=  7 q=26.0 size=     528kB time=00:00:05.20 bitrate= 831.5kbits/frame=  184 fps=  7 q=24.0 size=     560kB time=00:00:05.34 bitrate= 858.8kbits/frame=  186 fps=  7 q=24.0 size=     560kB time=00:00:05.38 bitrate= 852.4kbits/frame=  191 fps=  7 q=24.0 size=     592kB time=00:00:06.44 bitrate= 752.8kbits/frame=  192 fps=  7 q=24.0 size=     592kB time=00:00:06.46 bitrate= 750.5kbits/frame=  199 fps=  7 q=18.0 size=     624kB time=00:00:06.60 bitrate= 774.3kbits/frame=  200 fps=  7 q=17.0 size=     624kB time=00:00:06.62 bitrate= 771.9kbits/frame=  203 fps=  7 q=22.0 size=     656kB time=00:00:06.68 bitrate= 804.2kbits/frame=  205 fps=  7 q=22.0 size=     656kB time=00:00:06.84 bitrate= 785.4kbits/frame=  210 fps=  7 q=22.0 size=     688kB time=00:00:06.94 bitrate= 811.9kbits/frame=  214 fps=  7 q=22.0 size=     688kB time=00:00:07.02 bitrate= 802.6kbits/frame=  217 fps=  7 q=22.0 size=     688kB time=00:00:07.08 bitrate= 795.8kbits/frame=  222 fps=  7 q=22.0 size=     688kB time=00:00:07.18 bitrate= 784.7kbits/frame=  224 fps=  7 q=22.0 size=     688kB time=00:00:07.22 bitrate= 780.4kbits/frame=  230 fps=  7 q=22.0 size=     720kB time=00:00:07.52 bitrate= 784.1kbits/frame=  233 fps=  7 q=22.0 size=     720kB time=00:00:07.58 bitrate= 777.9kbits/frame=  238 fps=  7 q=22.0 size=     720kB time=00:00:07.78 bitrate= 757.9kbits/frame=  242 fps=  7 q=22.0 size=     720kB time=00:00:07.86 bitrate= 750.2kbits/frame=  248 fps=  7 q=21.0 size=     752kB time=00:00:07.98 bitrate= 771.8kbits/frame=  250 fps=  7 q=21.0 size=     752kB time=00:00:08.02 bitrate= 767.9kbits/frame=  254 fps=  7 q=21.0 size=     752kB time=00:00:08.10 bitrate= 760.3kbits/frame=  257 fps=  7 q=21.0 size=     752kB time=00:00:08.16 bitrate= 754.8kbits/frame=  259 fps=  7 q=21.0 size=     752kB time=00:00:08.20 bitrate= 751.1kbits/frame=  264 fps=  7 q=21.0 size=     752kB time=00:00:08.30 bitrate= 742.0kbits/frame=  266 fps=  7 q=21.0 size=     784kB time=00:00:08.34 bitrate= 769.9kbits/frame=  272 fps=  7 q=20.0 size=     816kB time=00:00:08.96 bitrate= 745.9kbits/frame=  274 fps=  6 q=20.0 size=     816kB time=00:00:09.00 bitrate= 742.6kbits/frame=  275 fps=  6 q=-1.0 Lsize=    1302kB time=00:00:10.52 bitrate=1013.7kbits/s    
  34. video:1116kB audio:180kB global headers:0kB muxing overhead 0.429575%
  35. [libx264 @ 0x9ac4bc0] frame I:2     Avg QP:18.76  size:232052
  36. [libx264 @ 0x9ac4bc0] frame P:82    Avg QP:16.74  size:  7302
  37. [libx264 @ 0x9ac4bc0] frame B:191   Avg QP:25.05  size:   416
  38. [libx264 @ 0x9ac4bc0] consecutive B-frames:  7.3%  0.0%  1.1% 91.6%
  39. [libx264 @ 0x9ac4bc0] mb I  I16..4: 57.1% 22.9% 20.1%
  40. [libx264 @ 0x9ac4bc0] mb P  I16..4:  1.1%  0.4%  0.1%  P16..4:  5.1%  0.3%  0.5%  0.0%  0.0%    skip:92.4%
  41. [libx264 @ 0x9ac4bc0] mb B  I16..4:  0.1%  0.0%  0.0%  B16..8:  2.6%  0.0%  0.0%  direct: 0.0%  skip:97.2%  L0:23.3% L1:76.7% BI: 0.0%
  42. [libx264 @ 0x9ac4bc0] final ratefactor: 18.11
  43. [libx264 @ 0x9ac4bc0] 8x8 transform intra:22.4% inter:59.2%
  44. [libx264 @ 0x9ac4bc0] coded y,uvDC,uvAC intra: 22.2% 30.8% 12.6% inter: 0.5% 0.9% 0.5%
  45. [libx264 @ 0x9ac4bc0] i16 v,h,dc,p: 44% 44%  6%  5%
  46. [libx264 @ 0x9ac4bc0] i8 v,h,dc,ddl,ddr,vr,hd,vl,hu: 16% 17% 56%  2%  3%  1%  1%  1%  2%
  47. [libx264 @ 0x9ac4bc0] i4 v,h,dc,ddl,ddr,vr,hd,vl,hu: 36% 34% 17%  2%  3%  2%  2%  2%  3%
  48. [libx264 @ 0x9ac4bc0] i8c dc,h,v,p: 53% 29% 17%  2%
  49. [libx264 @ 0x9ac4bc0] Weighted P-Frames: Y:0.0% UV:0.0%
  50. [libx264 @ 0x9ac4bc0] ref P L0: 90.1%  2.5%  5.9%  1.5%
  51. [libx264 @ 0x9ac4bc0] ref B L0: 58.2% 33.0%  8.8%
  52. [libx264 @ 0x9ac4bc0] ref B L1: 88.4% 11.6%
  53. [libx264 @ 0x9ac4bc0] kb/s:865.39
RAW Paste Data
We use cookies for various purposes including analytics. By continuing to use Pastebin, you agree to our use of cookies as described in the Cookies Policy. OK, I Understand
 
Top