SHARE
TWEET

Sky.High.2005.1080p.BluRay.REMUX.MPEG-2.DTS-HD.MA.5.1-EPSiLON

a guest Jun 18th, 2019 27 Never
Not a member of Pastebin yet? Sign Up, it unlocks many cool features!
  1. General
  2. Complete name                            : Sky.High.2005.1080p.BluRay.REMUX.MPEG-2.DTS-HD.MA.5.1-EPSiLON.mkv
  3. Format                                   : Matroska
  4. Format version                           : Version 4
  5. File size                                : 13.5 GiB
  6. Duration                                 : 1 h 39 min
  7. Overall bit rate mode                    : Variable
  8. Overall bit rate                         : 19.4 Mb/s
  9. Encoded date                             : UTC 2018-05-28 14:15:39
  10. Writing application                      : mkvmerge v23.0.0 ('The Bride Said No') 64-bit
  11. Writing library                          : libebml v1.3.6 + libmatroska v1.4.9
  12.  
  13. Video
  14. ID                                       : 1
  15. Format                                   : MPEG Video
  16. Format version                           : Version 2
  17. Format profile                           : Main@High
  18. Format settings                          : BVOP
  19. Format settings, BVOP                    : Yes
  20. Format settings, Matrix                  : Default
  21. Format settings, GOP                     : M=3, N=12
  22. Codec ID                                 : V_MPEG2
  23. Codec ID/Info                            : MPEG 1 or 2 Video
  24. Duration                                 : 1 h 39 min
  25. Bit rate mode                            : Variable
  26. Bit rate                                 : 16.7 Mb/s
  27. Maximum bit rate                         : 25.0 Mb/s
  28. Width                                    : 1 920 pixels
  29. Height                                   : 1 080 pixels
  30. Display aspect ratio                     : 16:9
  31. Frame rate mode                          : Constant
  32. Frame rate                               : 23.976 (24000/1001) FPS
  33. Color space                              : YUV
  34. Chroma subsampling                       : 4:2:0
  35. Bit depth                                : 8 bits
  36. Scan type                                : Progressive
  37. Compression mode                         : Lossy
  38. Bits/(Pixel*Frame)                       : 0.337
  39. Time code of first frame                 : 00:59:59:00
  40. Time code source                         : Group of pictures header
  41. GOP, Open/Closed                         : Open
  42. GOP, Open/Closed of first frame          : Closed
  43. Stream size                              : 11.6 GiB (86%)
  44. Title                                    : MPEG-2 Video / 16746 kbps / 1080p / 23.976 fps / 16:9
  45. Language                                 : English
  46. Default                                  : Yes
  47. Forced                                   : No
  48.  
  49. Audio
  50. ID                                       : 2
  51. Format                                   : DTS XLL
  52. Format/Info                              : Digital Theater Systems
  53. Commercial name                          : DTS-HD Master Audio
  54. Codec ID                                 : A_DTS
  55. Duration                                 : 1 h 39 min
  56. Bit rate mode                            : Variable
  57. Bit rate                                 : 2 315 kb/s
  58. Channel(s)                               : 6 channels
  59. Channel layout                           : C L R Ls Rs LFE
  60. Sampling rate                            : 48.0 kHz
  61. Frame rate                               : 93.750 FPS (512 SPF)
  62. Bit depth                                : 16 bits
  63. Compression mode                         : Lossless
  64. Stream size                              : 1.61 GiB (12%)
  65. Title                                    : DTS-HD Master Audio / 5.1 / 48 kHz / 2316 kbps / 16-bit
  66. Language                                 : English
  67. Default                                  : Yes
  68. Forced                                   : No
  69.  
  70. Text #1
  71. ID                                       : 3
  72. Format                                   : PGS
  73. Codec ID                                 : S_HDMV/PGS
  74. Codec ID/Info                            : Picture based subtitle format used on BDs/HD-DVDs
  75. Duration                                 : 1 h 33 min
  76. Bit rate                                 : 30.1 kb/s
  77. Count of elements                        : 2921
  78. Stream size                              : 20.1 MiB (0%)
  79. Language                                 : English
  80. Default                                  : No
  81. Forced                                   : No
  82.  
  83. Text #2
  84. ID                                       : 4
  85. Format                                   : PGS
  86. Codec ID                                 : S_HDMV/PGS
  87. Codec ID/Info                            : Picture based subtitle format used on BDs/HD-DVDs
  88. Duration                                 : 1 h 34 min
  89. Bit rate                                 : 33.1 kb/s
  90. Count of elements                        : 3211
  91. Stream size                              : 22.3 MiB (0%)
  92. Title                                    : SDH
  93. Language                                 : English
  94. Default                                  : No
  95. Forced                                   : No
  96.  
  97. Text #3
  98. ID                                       : 5
  99. Format                                   : PGS
  100. Codec ID                                 : S_HDMV/PGS
  101. Codec ID/Info                            : Picture based subtitle format used on BDs/HD-DVDs
  102. Duration                                 : 1 h 33 min
  103. Bit rate                                 : 27.2 kb/s
  104. Count of elements                        : 2955
  105. Stream size                              : 18.2 MiB (0%)
  106. Language                                 : Danish
  107. Default                                  : No
  108. Forced                                   : No
  109.  
  110. Text #4
  111. ID                                       : 6
  112. Format                                   : PGS
  113. Codec ID                                 : S_HDMV/PGS
  114. Codec ID/Info                            : Picture based subtitle format used on BDs/HD-DVDs
  115. Duration                                 : 1 h 33 min
  116. Bit rate                                 : 22.0 kb/s
  117. Count of elements                        : 2232
  118. Stream size                              : 14.7 MiB (0%)
  119. Language                                 : Dutch
  120. Default                                  : No
  121. Forced                                   : No
  122.  
  123. Text #5
  124. ID                                       : 7
  125. Format                                   : PGS
  126. Codec ID                                 : S_HDMV/PGS
  127. Codec ID/Info                            : Picture based subtitle format used on BDs/HD-DVDs
  128. Duration                                 : 1 h 33 min
  129. Bit rate                                 : 28.9 kb/s
  130. Count of elements                        : 2893
  131. Stream size                              : 19.3 MiB (0%)
  132. Language                                 : Finnish
  133. Default                                  : No
  134. Forced                                   : No
  135.  
  136. Text #6
  137. ID                                       : 8
  138. Format                                   : PGS
  139. Codec ID                                 : S_HDMV/PGS
  140. Codec ID/Info                            : Picture based subtitle format used on BDs/HD-DVDs
  141. Duration                                 : 1 h 38 min
  142. Bit rate                                 : 22.3 kb/s
  143. Count of elements                        : 2536
  144. Stream size                              : 15.8 MiB (0%)
  145. Language                                 : French
  146. Default                                  : No
  147. Forced                                   : No
  148.  
  149. Text #7
  150. ID                                       : 9
  151. Format                                   : PGS
  152. Codec ID                                 : S_HDMV/PGS
  153. Codec ID/Info                            : Picture based subtitle format used on BDs/HD-DVDs
  154. Duration                                 : 1 h 33 min
  155. Bit rate                                 : 34.0 kb/s
  156. Count of elements                        : 2947
  157. Stream size                              : 22.7 MiB (0%)
  158. Language                                 : German
  159. Default                                  : No
  160. Forced                                   : No
  161.  
  162. Text #8
  163. ID                                       : 10
  164. Format                                   : PGS
  165. Codec ID                                 : S_HDMV/PGS
  166. Codec ID/Info                            : Picture based subtitle format used on BDs/HD-DVDs
  167. Duration                                 : 1 h 33 min
  168. Bit rate                                 : 25.5 kb/s
  169. Count of elements                        : 2631
  170. Stream size                              : 17.0 MiB (0%)
  171. Language                                 : Icelandic
  172. Default                                  : No
  173. Forced                                   : No
  174.  
  175. Text #9
  176. ID                                       : 11
  177. Format                                   : PGS
  178. Codec ID                                 : S_HDMV/PGS
  179. Codec ID/Info                            : Picture based subtitle format used on BDs/HD-DVDs
  180. Duration                                 : 1 h 33 min
  181. Bit rate                                 : 26.7 kb/s
  182. Count of elements                        : 2941
  183. Stream size                              : 17.9 MiB (0%)
  184. Language                                 : Italian
  185. Default                                  : No
  186. Forced                                   : No
  187.  
  188. Text #10
  189. ID                                       : 12
  190. Format                                   : PGS
  191. Codec ID                                 : S_HDMV/PGS
  192. Codec ID/Info                            : Picture based subtitle format used on BDs/HD-DVDs
  193. Duration                                 : 1 h 33 min
  194. Bit rate                                 : 29.3 kb/s
  195. Count of elements                        : 2959
  196. Stream size                              : 19.6 MiB (0%)
  197. Language                                 : Norwegian
  198. Default                                  : No
  199. Forced                                   : No
  200.  
  201. Text #11
  202. ID                                       : 13
  203. Format                                   : PGS
  204. Codec ID                                 : S_HDMV/PGS
  205. Codec ID/Info                            : Picture based subtitle format used on BDs/HD-DVDs
  206. Duration                                 : 1 h 33 min
  207. Bit rate                                 : 26.5 kb/s
  208. Count of elements                        : 2949
  209. Stream size                              : 17.8 MiB (0%)
  210. Title                                    : Latin American
  211. Language                                 : Spanish
  212. Default                                  : No
  213. Forced                                   : No
  214.  
  215. Text #12
  216. ID                                       : 14
  217. Format                                   : PGS
  218. Codec ID                                 : S_HDMV/PGS
  219. Codec ID/Info                            : Picture based subtitle format used on BDs/HD-DVDs
  220. Duration                                 : 1 h 38 min
  221. Bit rate                                 : 23.4 kb/s
  222. Count of elements                        : 2661
  223. Stream size                              : 16.6 MiB (0%)
  224. Language                                 : Swedish
  225. Default                                  : No
  226. Forced                                   : No
  227.  
  228. Menu
  229. 00:00:00.000                             : en:Main Title
  230. 00:06:55.468                             : en:First Morning at School
  231. 00:17:00.635                             : en:Heroes & Sidekicks
  232. 00:22:38.469                             : en:In the Secret Sanctum
  233. 00:27:58.337                             : en:Support Program
  234. 00:37:31.171                             : en:Power Lunch
  235. 00:44:21.139                             : en:Crossover Appeal
  236. 00:54:04.473                             : en:Crossed Dinner Plans
  237. 01:00:59.307                             : en:Homecoming Committee
  238. 01:12:48.674                             : en:Trouble at the Prom
  239. 01:21:48.841                             : en:Real Hero Support
  240. 01:33:56.308                             : en:End Credits
RAW Paste Data
We use cookies for various purposes including analytics. By continuing to use Pastebin, you agree to our use of cookies as described in the Cookies Policy. OK, I Understand
 
Top