iMN0

Top.Gun.1986.UHD.BluRay.2160p.TrueHD.Atmos.7.1.HEVC.REMUX-FraMeSToR.mkv

Jun 18th, 2021
281
Never
Not a member of Pastebin yet? Sign Up, it unlocks many cool features!
  1. General
  2. Unique ID : 39325695888886498817104743948913368538 (0x1D95DA80EAEB375C2C55061B0ABE5DDA)
  3. Complete name : Top.Gun.1986.UHD.BluRay.2160p.TrueHD.Atmos.7.1.HEVC.REMUX-FraMeSToR.mkv
  4. Format : Matroska
  5. Format version : Version 4 / Version 2
  6. File size : 44.5 GiB
  7. Duration : 1h 49mn
  8. Overall bit rate mode : Variable
  9. Overall bit rate : 58.2 Mbps
  10. Movie name : Top Gun 4K
  11. Encoded date : UTC 2020-05-18 23:23:06
  12. Writing application : mkvmerge v46.0.0 ('No Deeper Escape') 64-bit
  13. Writing library : libebml v1.3.10 + libmatroska v1.5.2
  14. IMDB : tt0092099
  15. TMDB : movie/744
  16.  
  17. Video
  18. ID : 1
  19. Format : HEVC
  20. Format/Info : High Efficiency Video Coding
  21. Format profile : Main 10@L5.1@High
  22. Codec ID : V_MPEGH/ISO/HEVC
  23. Duration : 1h 49mn
  24. Bit rate : 51.1 Mbps
  25. Width : 3 840 pixels
  26. Height : 2 160 pixels
  27. Display aspect ratio : 16:9
  28. Frame rate mode : Constant
  29. Frame rate : 23.976 (24000/1001) fps
  30. Color space : YUV
  31. Chroma subsampling : 4:2:0
  32. Bit depth : 10 bits
  33. Bits/(Pixel*Frame) : 0.257
  34. Stream size : 39.1 GiB (88%)
  35. Default : Yes
  36. Forced : No
  37. Color range : Limited
  38. Color primaries : BT.2020
  39. Matrix coefficients : BT.2020 non-constant
  40.  
  41. Audio #1
  42. ID : 2
  43. Format : Atmos / TrueHD
  44. Codec ID : A_TRUEHD
  45. Duration : 1h 49mn
  46. Bit rate mode : Variable
  47. Bit rate : 4 476 Kbps
  48. Maximum bit rate : 8 049 Kbps
  49. Channel(s) : Object Based / 8 channels
  50. Channel positions : Object Based / Front: L C R, Side: L R, Back: L R, LFE
  51. Sampling rate : / 48.0 KHz
  52. Frame rate : 1 200.000 fps (40 spf)
  53. Compression mode : Lossless
  54. Stream size : 3.42 GiB (8%)
  55. Title : TrueHD Atmos 7.1
  56. Language : English
  57. Default : Yes
  58. Forced : No
  59.  
  60. Audio #2
  61. ID : 3
  62. Format : AC-3
  63. Format/Info : Audio Coding 3
  64. Mode extension : CM (complete main)
  65. Format settings, Endianness : Big
  66. Codec ID : A_AC3
  67. Duration : 1h 49mn
  68. Bit rate mode : Constant
  69. Bit rate : 640 Kbps
  70. Channel(s) : 6 channels
  71. Channel positions : Front: L C R, Side: L R, LFE
  72. Sampling rate : 48.0 KHz
  73. Frame rate : 31.250 fps (1536 spf)
  74. Compression mode : Lossy
  75. Stream size : 501 MiB (1%)
  76. Title : AC3 5.1-EX
  77. Language : English
  78. Default : No
  79. Forced : No
  80.  
  81. Audio #3
  82. ID : 4
  83. Format : AC-3
  84. Format/Info : Audio Coding 3
  85. Mode extension : CM (complete main)
  86. Format settings, Endianness : Big
  87. Codec ID : A_AC3
  88. Duration : 1h 49mn
  89. Bit rate mode : Constant
  90. Bit rate : 224 Kbps
  91. Channel(s) : 2 channels
  92. Channel positions : Front: L R
  93. Sampling rate : 48.0 KHz
  94. Frame rate : 31.250 fps (1536 spf)
  95. Compression mode : Lossy
  96. Stream size : 175 MiB (0%)
  97. Title : Commentary by Jerry Bruckheimer/Tony Scott/Jack Epps Jr./Mike Calpin/Pete Pettigrew/Mike McCabe
  98. Language : English
  99. Default : No
  100. Forced : No
  101.  
  102. Text #1
  103. ID : 5
  104. Format : PGS
  105. Codec ID : S_HDMV/PGS
  106. Codec ID/Info : Picture based subtitle format used on BDs/HD-DVDs
  107. Duration : 1h 40mn
  108. Bit rate : 38.7 Kbps
  109. Count of elements : 2782
  110. Stream size : 27.8 MiB (0%)
  111. Title : English
  112. Language : English
  113. Default : No
  114. Forced : No
  115.  
  116. Text #2
  117. ID : 6
  118. Format : PGS
  119. Codec ID : S_HDMV/PGS
  120. Codec ID/Info : Picture based subtitle format used on BDs/HD-DVDs
  121. Duration : 1h 42mn
  122. Bit rate : 40.5 Kbps
  123. Count of elements : 2998
  124. Stream size : 29.8 MiB (0%)
  125. Title : English (SDH)
  126. Language : English
  127. Default : No
  128. Forced : No
  129.  
  130. Text #3
  131. ID : 7
  132. Format : PGS
  133. Codec ID : S_HDMV/PGS
  134. Codec ID/Info : Picture based subtitle format used on BDs/HD-DVDs
  135. Duration : 1h 48mn
  136. Bit rate : 13.1 Kbps
  137. Count of elements : 2508
  138. Stream size : 10.2 MiB (0%)
  139. Title : Arabic
  140. Language : Arabic
  141. Default : No
  142. Forced : No
  143.  
  144. Text #4
  145. ID : 8
  146. Format : PGS
  147. Codec ID : S_HDMV/PGS
  148. Codec ID/Info : Picture based subtitle format used on BDs/HD-DVDs
  149. Duration : 1h 48mn
  150. Bit rate : 22.9 Kbps
  151. Count of elements : 2410
  152. Stream size : 17.8 MiB (0%)
  153. Title : Bulgarian
  154. Language : Bulgarian
  155. Default : No
  156. Forced : No
  157.  
  158. Text #5
  159. ID : 9
  160. Format : PGS
  161. Codec ID : S_HDMV/PGS
  162. Codec ID/Info : Picture based subtitle format used on BDs/HD-DVDs
  163. Duration : 1h 48mn
  164. Bit rate : 25.6 Kbps
  165. Count of elements : 2612
  166. Stream size : 19.9 MiB (0%)
  167. Title : Chinese (Cantonese)
  168. Language : Chinese
  169. Default : No
  170. Forced : No
  171.  
  172. Text #6
  173. ID : 10
  174. Format : PGS
  175. Codec ID : S_HDMV/PGS
  176. Codec ID/Info : Picture based subtitle format used on BDs/HD-DVDs
  177. Duration : 1h 48mn
  178. Bit rate : 27.5 Kbps
  179. Count of elements : 2596
  180. Stream size : 21.4 MiB (0%)
  181. Title : Chinese (Mandarin Simplified)
  182. Language : Chinese
  183. Default : No
  184. Forced : No
  185.  
  186. Text #7
  187. ID : 11
  188. Format : PGS
  189. Codec ID : S_HDMV/PGS
  190. Codec ID/Info : Picture based subtitle format used on BDs/HD-DVDs
  191. Duration : 1h 48mn
  192. Bit rate : 22.1 Kbps
  193. Count of elements : 2690
  194. Stream size : 17.2 MiB (0%)
  195. Title : Chinese (Mandarin Traditional)
  196. Language : Chinese
  197. Default : No
  198. Forced : No
  199.  
  200. Text #8
  201. ID : 12
  202. Format : PGS
  203. Codec ID : S_HDMV/PGS
  204. Codec ID/Info : Picture based subtitle format used on BDs/HD-DVDs
  205. Duration : 1h 48mn
  206. Bit rate : 25.6 Kbps
  207. Count of elements : 2528
  208. Stream size : 19.9 MiB (0%)
  209. Title : Croatian
  210. Language : Croatian
  211. Default : No
  212. Forced : No
  213.  
  214. Text #9
  215. ID : 13
  216. Format : PGS
  217. Codec ID : S_HDMV/PGS
  218. Codec ID/Info : Picture based subtitle format used on BDs/HD-DVDs
  219. Duration : 1h 48mn
  220. Bit rate : 30.2 Kbps
  221. Count of elements : 2822
  222. Stream size : 23.4 MiB (0%)
  223. Title : Czech
  224. Language : Czech
  225. Default : No
  226. Forced : No
  227.  
  228. Text #10
  229. ID : 14
  230. Format : PGS
  231. Codec ID : S_HDMV/PGS
  232. Codec ID/Info : Picture based subtitle format used on BDs/HD-DVDs
  233. Duration : 1h 48mn
  234. Bit rate : 24.0 Kbps
  235. Count of elements : 2426
  236. Stream size : 18.7 MiB (0%)
  237. Title : Danish
  238. Language : Danish
  239. Default : No
  240. Forced : No
  241.  
  242. Text #11
  243. ID : 15
  244. Format : PGS
  245. Codec ID : S_HDMV/PGS
  246. Codec ID/Info : Picture based subtitle format used on BDs/HD-DVDs
  247. Duration : 1h 48mn
  248. Bit rate : 26.1 Kbps
  249. Count of elements : 2178
  250. Stream size : 20.3 MiB (0%)
  251. Title : Dutch
  252. Language : Dutch
  253. Default : No
  254. Forced : No
  255.  
  256. Text #12
  257. ID : 16
  258. Format : PGS
  259. Codec ID : S_HDMV/PGS
  260. Codec ID/Info : Picture based subtitle format used on BDs/HD-DVDs
  261. Duration : 1h 48mn
  262. Bit rate : 31.9 Kbps
  263. Count of elements : 2820
  264. Stream size : 24.8 MiB (0%)
  265. Title : Estonian
  266. Language : Estonian
  267. Default : No
  268. Forced : No
  269.  
  270. Text #13
  271. ID : 17
  272. Format : PGS
  273. Codec ID : S_HDMV/PGS
  274. Codec ID/Info : Picture based subtitle format used on BDs/HD-DVDs
  275. Duration : 1h 48mn
  276. Bit rate : 26.8 Kbps
  277. Count of elements : 2230
  278. Stream size : 20.8 MiB (0%)
  279. Title : Finnish
  280. Language : Finnish
  281. Default : No
  282. Forced : No
  283.  
  284. Text #14
  285. ID : 18
  286. Format : PGS
  287. Codec ID : S_HDMV/PGS
  288. Codec ID/Info : Picture based subtitle format used on BDs/HD-DVDs
  289. Duration : 1h 48mn
  290. Bit rate : 27.3 Kbps
  291. Count of elements : 2490
  292. Stream size : 21.2 MiB (0%)
  293. Title : French
  294. Language : French
  295. Default : No
  296. Forced : No
  297.  
  298. Text #15
  299. ID : 19
  300. Format : PGS
  301. Codec ID : S_HDMV/PGS
  302. Codec ID/Info : Picture based subtitle format used on BDs/HD-DVDs
  303. Duration : 1h 48mn
  304. Bit rate : 28.6 Kbps
  305. Count of elements : 2502
  306. Stream size : 22.3 MiB (0%)
  307. Title : German
  308. Language : German
  309. Default : No
  310. Forced : No
  311.  
  312. Text #16
  313. ID : 20
  314. Format : PGS
  315. Codec ID : S_HDMV/PGS
  316. Codec ID/Info : Picture based subtitle format used on BDs/HD-DVDs
  317. Duration : 1h 48mn
  318. Bit rate : 25.9 Kbps
  319. Count of elements : 2462
  320. Stream size : 20.2 MiB (0%)
  321. Title : Greek
  322. Language : Greek
  323. Default : No
  324. Forced : No
  325.  
  326. Text #17
  327. ID : 21
  328. Format : PGS
  329. Codec ID : S_HDMV/PGS
  330. Codec ID/Info : Picture based subtitle format used on BDs/HD-DVDs
  331. Duration : 1h 48mn
  332. Bit rate : 27.7 Kbps
  333. Count of elements : 2836
  334. Stream size : 21.6 MiB (0%)
  335. Title : Hindi
  336. Language : Hindi
  337. Default : No
  338. Forced : No
  339.  
  340. Text #18
  341. ID : 22
  342. Format : PGS
  343. Codec ID : S_HDMV/PGS
  344. Codec ID/Info : Picture based subtitle format used on BDs/HD-DVDs
  345. Duration : 1h 48mn
  346. Bit rate : 19.0 Kbps
  347. Count of elements : 2174
  348. Stream size : 14.8 MiB (0%)
  349. Title : Hungarian
  350. Language : Hungarian
  351. Default : No
  352. Forced : No
  353.  
  354. Text #19
  355. ID : 23
  356. Format : PGS
  357. Codec ID : S_HDMV/PGS
  358. Codec ID/Info : Picture based subtitle format used on BDs/HD-DVDs
  359. Duration : 1h 48mn
  360. Bit rate : 24.6 Kbps
  361. Count of elements : 2482
  362. Stream size : 19.1 MiB (0%)
  363. Title : Icelandic
  364. Language : Icelandic
  365. Default : No
  366. Forced : No
  367.  
  368. Text #20
  369. ID : 24
  370. Format : PGS
  371. Codec ID : S_HDMV/PGS
  372. Codec ID/Info : Picture based subtitle format used on BDs/HD-DVDs
  373. Duration : 1h 48mn
  374. Bit rate : 37.7 Kbps
  375. Count of elements : 2824
  376. Stream size : 29.3 MiB (0%)
  377. Title : Indonesian
  378. Language : Indonesian
  379. Default : No
  380. Forced : No
  381.  
  382. Text #21
  383. ID : 25
  384. Format : PGS
  385. Codec ID : S_HDMV/PGS
  386. Codec ID/Info : Picture based subtitle format used on BDs/HD-DVDs
  387. Duration : 1h 48mn
  388. Bit rate : 25.0 Kbps
  389. Count of elements : 2472
  390. Stream size : 19.4 MiB (0%)
  391. Title : Italian
  392. Language : Italian
  393. Default : No
  394. Forced : No
  395.  
  396. Text #22
  397. ID : 26
  398. Format : PGS
  399. Codec ID : S_HDMV/PGS
  400. Codec ID/Info : Picture based subtitle format used on BDs/HD-DVDs
  401. Duration : 1h 43mn
  402. Bit rate : 18.9 Kbps
  403. Count of elements : 1898
  404. Stream size : 14.0 MiB (0%)
  405. Title : Japanese
  406. Language : Japanese
  407. Default : No
  408. Forced : No
  409.  
  410. Text #23
  411. ID : 27
  412. Format : PGS
  413. Codec ID : S_HDMV/PGS
  414. Codec ID/Info : Picture based subtitle format used on BDs/HD-DVDs
  415. Duration : 1h 48mn
  416. Bit rate : 26.2 Kbps
  417. Count of elements : 2596
  418. Stream size : 20.4 MiB (0%)
  419. Title : Korean
  420. Language : Korean
  421. Default : No
  422. Forced : No
  423.  
  424. Text #24
  425. ID : 28
  426. Format : PGS
  427. Codec ID : S_HDMV/PGS
  428. Codec ID/Info : Picture based subtitle format used on BDs/HD-DVDs
  429. Duration : 1h 48mn
  430. Bit rate : 33.6 Kbps
  431. Count of elements : 2828
  432. Stream size : 26.1 MiB (0%)
  433. Title : Latvian
  434. Language : Latvian
  435. Default : No
  436. Forced : No
  437.  
  438. Text #25
  439. ID : 29
  440. Format : PGS
  441. Codec ID : S_HDMV/PGS
  442. Codec ID/Info : Picture based subtitle format used on BDs/HD-DVDs
  443. Duration : 1h 48mn
  444. Bit rate : 31.2 Kbps
  445. Count of elements : 2832
  446. Stream size : 24.2 MiB (0%)
  447. Title : Lithuanian
  448. Language : Lithuanian
  449. Default : No
  450. Forced : No
  451.  
  452. Text #26
  453. ID : 30
  454. Format : PGS
  455. Codec ID : S_HDMV/PGS
  456. Codec ID/Info : Picture based subtitle format used on BDs/HD-DVDs
  457. Duration : 1h 48mn
  458. Bit rate : 27.8 Kbps
  459. Count of elements : 2508
  460. Stream size : 21.6 MiB (0%)
  461. Title : Norwegian
  462. Language : Norwegian
  463. Default : No
  464. Forced : No
  465.  
  466. Text #27
  467. ID : 31
  468. Format : PGS
  469. Codec ID : S_HDMV/PGS
  470. Codec ID/Info : Picture based subtitle format used on BDs/HD-DVDs
  471. Duration : 1h 48mn
  472. Bit rate : 30.0 Kbps
  473. Count of elements : 2822
  474. Stream size : 23.3 MiB (0%)
  475. Title : Polish
  476. Language : Polish
  477. Default : No
  478. Forced : No
  479.  
  480. Text #28
  481. ID : 32
  482. Format : PGS
  483. Codec ID : S_HDMV/PGS
  484. Codec ID/Info : Picture based subtitle format used on BDs/HD-DVDs
  485. Duration : 1h 48mn
  486. Bit rate : 31.1 Kbps
  487. Count of elements : 2422
  488. Stream size : 24.2 MiB (0%)
  489. Title : Portuguese (Brazilian)
  490. Language : Portuguese
  491. Default : No
  492. Forced : No
  493.  
  494. Text #29
  495. ID : 33
  496. Format : PGS
  497. Codec ID : S_HDMV/PGS
  498. Codec ID/Info : Picture based subtitle format used on BDs/HD-DVDs
  499. Duration : 1h 48mn
  500. Bit rate : 26.6 Kbps
  501. Count of elements : 2494
  502. Stream size : 20.6 MiB (0%)
  503. Title : Portuguese (Iberian)
  504. Language : Portuguese
  505. Default : No
  506. Forced : No
  507.  
  508. Text #30
  509. ID : 34
  510. Format : PGS
  511. Codec ID : S_HDMV/PGS
  512. Codec ID/Info : Picture based subtitle format used on BDs/HD-DVDs
  513. Duration : 1h 48mn
  514. Bit rate : 26.4 Kbps
  515. Count of elements : 2480
  516. Stream size : 20.5 MiB (0%)
  517. Title : Romanian
  518. Language : Romanian
  519. Default : No
  520. Forced : No
  521.  
  522. Text #31
  523. ID : 35
  524. Format : PGS
  525. Codec ID : S_HDMV/PGS
  526. Codec ID/Info : Picture based subtitle format used on BDs/HD-DVDs
  527. Duration : 1h 48mn
  528. Bit rate : 36.4 Kbps
  529. Count of elements : 2592
  530. Stream size : 28.3 MiB (0%)
  531. Title : Russian
  532. Language : Russian
  533. Default : No
  534. Forced : No
  535.  
  536. Text #32
  537. ID : 36
  538. Format : PGS
  539. Codec ID : S_HDMV/PGS
  540. Codec ID/Info : Picture based subtitle format used on BDs/HD-DVDs
  541. Duration : 1h 48mn
  542. Bit rate : 24.1 Kbps
  543. Count of elements : 2464
  544. Stream size : 18.7 MiB (0%)
  545. Title : Serbian
  546. Language : Serbian
  547. Default : No
  548. Forced : No
  549.  
  550. Text #33
  551. ID : 37
  552. Format : PGS
  553. Codec ID : S_HDMV/PGS
  554. Codec ID/Info : Picture based subtitle format used on BDs/HD-DVDs
  555. Duration : 1h 48mn
  556. Bit rate : 31.3 Kbps
  557. Count of elements : 2830
  558. Stream size : 24.4 MiB (0%)
  559. Title : Slovak
  560. Language : Slovak
  561. Default : No
  562. Forced : No
  563.  
  564. Text #34
  565. ID : 38
  566. Format : PGS
  567. Codec ID : S_HDMV/PGS
  568. Codec ID/Info : Picture based subtitle format used on BDs/HD-DVDs
  569. Duration : 1h 48mn
  570. Bit rate : 23.4 Kbps
  571. Count of elements : 2502
  572. Stream size : 18.2 MiB (0%)
  573. Title : Slovenian
  574. Language : Slovenian
  575. Default : No
  576. Forced : No
  577.  
  578. Text #35
  579. ID : 39
  580. Format : PGS
  581. Codec ID : S_HDMV/PGS
  582. Codec ID/Info : Picture based subtitle format used on BDs/HD-DVDs
  583. Duration : 1h 48mn
  584. Bit rate : 27.2 Kbps
  585. Count of elements : 2474
  586. Stream size : 21.1 MiB (0%)
  587. Title : Spanish (Castilian)
  588. Language : Spanish
  589. Default : No
  590. Forced : No
  591.  
  592. Text #36
  593. ID : 40
  594. Format : PGS
  595. Codec ID : S_HDMV/PGS
  596. Codec ID/Info : Picture based subtitle format used on BDs/HD-DVDs
  597. Duration : 1h 43mn
  598. Bit rate : 34.7 Kbps
  599. Count of elements : 2746
  600. Stream size : 25.8 MiB (0%)
  601. Title : Spanish (Latin American)
  602. Language : Spanish
  603. Default : No
  604. Forced : No
  605.  
  606. Text #37
  607. ID : 41
  608. Format : PGS
  609. Codec ID : S_HDMV/PGS
  610. Codec ID/Info : Picture based subtitle format used on BDs/HD-DVDs
  611. Duration : 1h 48mn
  612. Bit rate : 23.8 Kbps
  613. Count of elements : 2404
  614. Stream size : 18.5 MiB (0%)
  615. Title : Swedish
  616. Language : Swedish
  617. Default : No
  618. Forced : No
  619.  
  620. Text #38
  621. ID : 42
  622. Format : PGS
  623. Codec ID : S_HDMV/PGS
  624. Codec ID/Info : Picture based subtitle format used on BDs/HD-DVDs
  625. Duration : 1h 48mn
  626. Bit rate : 28.3 Kbps
  627. Count of elements : 2834
  628. Stream size : 22.0 MiB (0%)
  629. Title : Thai
  630. Language : Thai
  631. Default : No
  632. Forced : No
  633.  
  634. Text #39
  635. ID : 43
  636. Format : PGS
  637. Codec ID : S_HDMV/PGS
  638. Codec ID/Info : Picture based subtitle format used on BDs/HD-DVDs
  639. Duration : 1h 48mn
  640. Bit rate : 24.3 Kbps
  641. Count of elements : 2410
  642. Stream size : 18.9 MiB (0%)
  643. Title : Turkish
  644. Language : Turkish
  645. Default : No
  646. Forced : No
  647.  
  648. Text #40
  649. ID : 44
  650. Format : PGS
  651. Codec ID : S_HDMV/PGS
  652. Codec ID/Info : Picture based subtitle format used on BDs/HD-DVDs
  653. Duration : 1h 49mn
  654. Bit rate : 80.2 Kbps
  655. Count of elements : 4215
  656. Stream size : 62.6 MiB (0%)
  657. Title : English (Commentary)
  658. Language : English
  659. Default : No
  660. Forced : No
  661.  
  662. Text #41
  663. ID : 45
  664. Format : PGS
  665. Codec ID : S_HDMV/PGS
  666. Codec ID/Info : Picture based subtitle format used on BDs/HD-DVDs
  667. Duration : 1h 49mn
  668. Bit rate : 68.1 Kbps
  669. Count of elements : 4217
  670. Stream size : 53.2 MiB (0%)
  671. Title : French (Commentary)
  672. Language : French
  673. Default : No
  674. Forced : No
  675.  
  676. Text #42
  677. ID : 46
  678. Format : PGS
  679. Codec ID : S_HDMV/PGS
  680. Codec ID/Info : Picture based subtitle format used on BDs/HD-DVDs
  681. Duration : 1h 49mn
  682. Bit rate : 75.3 Kbps
  683. Count of elements : 4217
  684. Stream size : 58.8 MiB (0%)
  685. Title : German (Commentary)
  686. Language : German
  687. Default : No
  688. Forced : No
  689.  
  690. Text #43
  691. ID : 47
  692. Format : PGS
  693. Codec ID : S_HDMV/PGS
  694. Codec ID/Info : Picture based subtitle format used on BDs/HD-DVDs
  695. Duration : 1h 49mn
  696. Bit rate : 64.1 Kbps
  697. Count of elements : 4217
  698. Stream size : 50.1 MiB (0%)
  699. Title : Italian (Commentary)
  700. Language : Italian
  701. Default : No
  702. Forced : No
  703.  
  704. Text #44
  705. ID : 48
  706. Format : PGS
  707. Codec ID : S_HDMV/PGS
  708. Codec ID/Info : Picture based subtitle format used on BDs/HD-DVDs
  709. Duration : 1h 49mn
  710. Bit rate : 47.4 Kbps
  711. Count of elements : 2886
  712. Stream size : 37.0 MiB (0%)
  713. Title : Japanese (Commentary)
  714. Language : Japanese
  715. Default : No
  716. Forced : No
  717.  
  718. Text #45
  719. ID : 49
  720. Format : PGS
  721. Codec ID : S_HDMV/PGS
  722. Codec ID/Info : Picture based subtitle format used on BDs/HD-DVDs
  723. Duration : 1h 49mn
  724. Bit rate : 53.2 Kbps
  725. Count of elements : 4219
  726. Stream size : 41.6 MiB (0%)
  727. Title : Korean (Commentary)
  728. Language : Korean
  729. Default : No
  730. Forced : No
  731.  
  732. Text #46
  733. ID : 50
  734. Format : PGS
  735. Codec ID : S_HDMV/PGS
  736. Codec ID/Info : Picture based subtitle format used on BDs/HD-DVDs
  737. Duration : 1h 49mn
  738. Bit rate : 69.6 Kbps
  739. Count of elements : 3470
  740. Stream size : 54.4 MiB (0%)
  741. Title : Portuguese (Commentary)
  742. Language : Portuguese
  743. Default : No
  744. Forced : No
  745.  
  746. Text #47
  747. ID : 51
  748. Format : PGS
  749. Codec ID : S_HDMV/PGS
  750. Codec ID/Info : Picture based subtitle format used on BDs/HD-DVDs
  751. Duration : 1h 49mn
  752. Bit rate : 67.8 Kbps
  753. Count of elements : 4217
  754. Stream size : 53.0 MiB (0%)
  755. Title : Spanish (Commentary)
  756. Language : Spanish
  757. Default : No
  758. Forced : No
  759.  
  760. Text #48
  761. ID : 52
  762. Format : PGS
  763. Codec ID : S_HDMV/PGS
  764. Codec ID/Info : Picture based subtitle format used on BDs/HD-DVDs
  765. Duration : 1h 49mn
  766. Bit rate : 72.3 Kbps
  767. Count of elements : 4121
  768. Stream size : 56.5 MiB (0%)
  769. Title : Spanish (Commentary)
  770. Language : Spanish
  771. Default : No
  772. Forced : No
  773.  
  774. Menu
  775. 00:00:00.000 : en:Flight Deck
  776. 00:02:45.290 : en:Bogies
  777. 00:12:50.353 : en:The Elite
  778. 00:19:08.689 : en:Target Rich Environment
  779. 00:25:45.419 : en:Callsign: Charlie
  780. 00:29:31.436 : en:Dogfighting
  781. 00:39:12.392 : en:I Don't Date Students
  782. 00:48:04.465 : en:Falling
  783. 00:55:28.033 : en:The Need For Speed
  784. 01:01:32.772 : en:Take Me To Bed
  785. 01:04:04.507 : en:Flameout
  786. 01:13:42.960 : en:Keep Sending Him Up
  787. 01:21:14.828 : en:No Disgrace
  788. 01:27:09.891 : en:Migs Dead Ahead
  789. 01:34:23.992 : en:Wingman
  790. 01:42:03.784 : en:Choice Of Duty
RAW Paste Data