Guest User

Project.A.1983.1080p.BluRay.REMUX.ULTIMATE.HK-Rescue.HKCut.Plus.Comm.LPCM.x264-MaG

a guest
Jun 11th, 2019
125
Never
Not a member of Pastebin yet? Sign Up, it unlocks many cool features!
  1. General
  2. Unique ID                                : 205962458803406601681757667298833959929 (0x9AF2ED3B175999A48816203859918BF9)
  3. Complete name                            : Project.A.1983.1080p.BluRay.REMUX.ULTIMATE.HK-Rescue.HKCut.Plus.Comm.LPCM.x264-MaG.mkv
  4. Format                                   : Matroska
  5. Format version                           : Version 4
  6. File size                                : 18.7 GiB
  7. Duration                                 : 1 h 45 min
  8. Overall bit rate mode                    : Variable
  9. Overall bit rate                         : 25.4 Mb/s
  10. Encoded date                             : UTC 2017-10-07 15:55:06
  11. Writing application                      : mkvmerge v8.8.0 ('Wind at my back') 64bit
  12. Writing library                          : libebml v1.3.3 + libmatroska v1.4.4
  13.  
  14. Video
  15. ID                                       : 1
  16. Format                                   : AVC
  17. Format/Info                              : Advanced Video Codec
  18. Format profile                           : High@L4.1
  19. Format settings                          : CABAC
  20. Format settings, CABAC                   : Yes
  21. Format settings, GOP                     : N=1
  22. Codec ID                                 : V_MPEG4/ISO/AVC
  23. Duration                                 : 1 h 45 min
  24. Bit rate mode                            : Variable
  25. Bit rate                                 : 19.9 Mb/s
  26. Maximum bit rate                         : 26.0 Mb/s
  27. Width                                    : 1 920 pixels
  28. Height                                   : 1 080 pixels
  29. Display aspect ratio                     : 16:9
  30. Frame rate mode                          : Constant
  31. Frame rate                               : 23.976 (24000/1001) FPS
  32. Standard                                 : NTSC
  33. Color space                              : YUV
  34. Chroma subsampling                       : 4:2:0
  35. Bit depth                                : 8 bits
  36. Scan type                                : Progressive
  37. Bits/(Pixel*Frame)                       : 0.401
  38. Stream size                              : 14.6 GiB (78%)
  39. Language                                 : Chinese
  40. Default                                  : No
  41. Forced                                   : No
  42. Color range                              : Limited
  43. Color primaries                          : BT.709
  44. Transfer characteristics                 : BT.709
  45. Matrix coefficients                      : BT.709
  46.  
  47. Audio #1
  48. ID                                       : 2
  49. Format                                   : PCM
  50. Format settings                          : Little / Signed
  51. Codec ID                                 : A_PCM/INT/LIT
  52. Duration                                 : 1 h 45 min
  53. Bit rate mode                            : Constant
  54. Bit rate                                 : 1 536 kb/s
  55. Channel(s)                               : 2 channels
  56. Sampling rate                            : 48.0 kHz
  57. Frame rate                               : 30.000 FPS (1600 SPF)
  58. Bit depth                                : 16 bits
  59. Stream size                              : 1.13 GiB (6%)
  60. Title                                    : Original Cantonese LPCM 2.0 Audio
  61. Language                                 : Chinese
  62. Default                                  : Yes
  63. Forced                                   : No
  64.  
  65. Audio #2
  66. ID                                       : 3
  67. Format                                   : DTS XLL
  68. Format/Info                              : Digital Theater Systems
  69. Commercial name                          : DTS-HD Master Audio
  70. Codec ID                                 : A_DTS
  71. Duration                                 : 1 h 45 min
  72. Bit rate mode                            : Variable
  73. Bit rate                                 : 1 595 kb/s
  74. Channel(s)                               : 6 channels
  75. Channel layout                           : C L R Ls Rs LFE
  76. Sampling rate                            : 48.0 kHz
  77. Frame rate                               : 93.750 FPS (512 SPF)
  78. Bit depth                                : 16 bits
  79. Compression mode                         : Lossless
  80. Stream size                              : 1.17 GiB (6%)
  81. Title                                    : Cantonese DTS-HD MA 5.1 Audio
  82. Language                                 : Chinese
  83. Default                                  : No
  84. Forced                                   : No
  85.  
  86. Audio #3
  87. ID                                       : 4
  88. Format                                   : DTS
  89. Format/Info                              : Digital Theater Systems
  90. Codec ID                                 : A_DTS
  91. Duration                                 : 1 h 45 min
  92. Bit rate mode                            : Constant
  93. Bit rate                                 : 768 kb/s
  94. Channel(s)                               : 6 channels
  95. Channel layout                           : C L R Ls Rs LFE
  96. Sampling rate                            : 48.0 kHz
  97. Frame rate                               : 93.750 FPS (512 SPF)
  98. Bit depth                                : 16 bits
  99. Compression mode                         : Lossy
  100. Stream size                              : 578 MiB (3%)
  101. Title                                    : Cantonese 5.1 Audio
  102. Language                                 : Chinese
  103. Default                                  : No
  104. Forced                                   : No
  105.  
  106. Audio #4
  107. ID                                       : 5
  108. Format                                   : AC-3
  109. Format/Info                              : Audio Coding 3
  110. Commercial name                          : Dolby Digital
  111. Codec ID                                 : A_AC3
  112. Duration                                 : 1 h 45 min
  113. Bit rate mode                            : Constant
  114. Bit rate                                 : 512 kb/s
  115. Channel(s)                               : 6 channels
  116. Channel layout                           : L R C LFE Ls Rs
  117. Sampling rate                            : 48.0 kHz
  118. Frame rate                               : 31.250 FPS (1536 SPF)
  119. Bit depth                                : 16 bits
  120. Compression mode                         : Lossy
  121. Stream size                              : 385 MiB (2%)
  122. Title                                    : Mandarin DD 5.1 Audio
  123. Language                                 : Chinese
  124. Service kind                             : Complete Main
  125. Default                                  : No
  126. Forced                                   : No
  127.  
  128. Audio #5
  129. ID                                       : 6
  130. Format                                   : AC-3
  131. Format/Info                              : Audio Coding 3
  132. Commercial name                          : Dolby Digital
  133. Codec ID                                 : A_AC3
  134. Duration                                 : 1 h 45 min
  135. Bit rate mode                            : Constant
  136. Bit rate                                 : 640 kb/s
  137. Channel(s)                               : 2 channels
  138. Channel layout                           : L R
  139. Sampling rate                            : 48.0 kHz
  140. Frame rate                               : 31.250 FPS (1536 SPF)
  141. Bit depth                                : 16 bits
  142. Compression mode                         : Lossy
  143. Stream size                              : 482 MiB (3%)
  144. Title                                    : New US English Dub DD 2.0 Audio
  145. Language                                 : English
  146. Service kind                             : Complete Main
  147. Default                                  : No
  148. Forced                                   : No
  149.  
  150. Audio #6
  151. ID                                       : 7
  152. Format                                   : AC-3
  153. Format/Info                              : Audio Coding 3
  154. Commercial name                          : Dolby Digital
  155. Codec ID                                 : A_AC3
  156. Duration                                 : 1 h 45 min
  157. Bit rate mode                            : Constant
  158. Bit rate                                 : 384 kb/s
  159. Channel(s)                               : 2 channels
  160. Channel layout                           : L R
  161. Sampling rate                            : 48.0 kHz
  162. Frame rate                               : 31.250 FPS (1536 SPF)
  163. Bit depth                                : 16 bits
  164. Compression mode                         : Lossy
  165. Stream size                              : 289 MiB (2%)
  166. Title                                    : Commentary with Hong Kong expert Bey Logan
  167. Language                                 : English
  168. Service kind                             : Complete Main
  169. Default                                  : No
  170. Forced                                   : No
  171.  
  172. Text #1
  173. ID                                       : 8
  174. Format                                   : PGS
  175. Muxing mode                              : zlib
  176. Codec ID                                 : S_HDMV/PGS
  177. Codec ID/Info                            : Picture based subtitle format used on BDs/HD-DVDs
  178. Duration                                 : 1 h 43 min
  179. Bit rate                                 : 17.5 kb/s
  180. Count of elements                        : 2926
  181. Stream size                              : 13.0 MiB (0%)
  182. Language                                 : English
  183. Default                                  : Yes
  184. Forced                                   : No
  185.  
  186. Text #2
  187. ID                                       : 9
  188. Format                                   : PGS
  189. Muxing mode                              : zlib
  190. Codec ID                                 : S_HDMV/PGS
  191. Codec ID/Info                            : Picture based subtitle format used on BDs/HD-DVDs
  192. Duration                                 : 1 h 41 min
  193. Bit rate                                 : 17.5 kb/s
  194. Count of elements                        : 2890
  195. Stream size                              : 12.7 MiB (0%)
  196. Language                                 : English
  197. Default                                  : No
  198. Forced                                   : No
  199.  
  200. Menu
  201. 00:00:00.000                             : en:Chapter 01
  202. 00:00:56.514                             : en:Chapter 02
  203. 00:04:17.340                             : en:Chapter 03
  204. 00:14:19.733                             : en:Chapter 04
  205. 00:16:40.582                             : en:Chapter 05
  206. 00:18:37.574                             : en:Chapter 06
  207. 00:21:48.098                             : en:Chapter 07
  208. 00:25:15.764                             : en:Chapter 08
  209. 00:27:30.649                             : en:Chapter 09
  210. 00:29:37.984                             : en:Chapter 10
  211. 00:32:08.384                             : en:Chapter 11
  212. 00:39:20.316                             : en:Chapter 12
  213. 00:44:36.423                             : en:Chapter 13
  214. 00:46:29.745                             : en:Chapter 14
  215. 00:53:40.759                             : en:Chapter 15
  216. 00:58:59.953                             : en:Chapter 16
  217. 01:03:16.667                             : en:Chapter 17
  218. 01:06:11.050                             : en:Chapter 18
  219. 01:12:21.962                             : en:Chapter 19
  220. 01:18:18.443                             : en:Chapter 20
  221. 01:32:30.586                             : en:Chapter 21
  222. 01:41:57.861                             : en:Chapter 22
  223. 01:42:46.618                             : en:Chapter 23
RAW Paste Data