SHARE
TWEET

Yppah & Josef Peters - 2015 - Nightscapes

sakowinar Jan 27th, 2016 200 Never
Not a member of Pastebin yet? Sign Up, it unlocks many cool features!
  1. REM COMMENT "CUETools generated dummy CUE sheet"
  2. PERFORMER "Yppah & Josef Peters"
  3. TITLE "Nightscapes"
  4. REM DATE 2015
  5. REM DISCNUMBER 1
  6. REM TOTALDISCS 1
  7. REM GENRE "Downtempo"
  8. FILE "Yppah Yppah & Josef Peters - Nightscapes - 01 Timestretch.flac" WAVE
  9.   TRACK 01 AUDIO
  10.     PERFORMER "Yppah & Josef Peters"
  11.     TITLE "Timestretch"
  12.     INDEX 01 00:00:00
  13. FILE "Yppah Yppah & Josef Peters - Nightscapes - 02 Submotion.flac" WAVE
  14.   TRACK 02 AUDIO
  15.     PERFORMER "Yppah & Josef Peters"
  16.     TITLE "Submotion"
  17.     INDEX 01 00:00:00
  18. FILE "Yppah Yppah & Josef Peters - Nightscapes - 03 Pacific Drive.flac" WAVE
  19.   TRACK 03 AUDIO
  20.     PERFORMER "Yppah & Josef Peters"
  21.     TITLE "Pacific Drive"
  22.     INDEX 01 00:00:00
  23. FILE "Yppah Yppah & Josef Peters - Nightscapes - 04 Into The Stratosphere.flac" WAVE
  24.   TRACK 04 AUDIO
  25.     PERFORMER "Yppah & Josef Peters"
  26.     TITLE "Into the Stratosphere"
  27.     INDEX 01 00:00:00
  28. FILE "Yppah Yppah & Josef Peters - Nightscapes - 05 Supersonic Freefall.flac" WAVE
  29.   TRACK 05 AUDIO
  30.     PERFORMER "Yppah & Josef Peters"
  31.     TITLE "Supersonic Freefall"
  32.     INDEX 01 00:00:00
  33. FILE "Yppah Yppah & Josef Peters - Nightscapes - 06 Look To The Stars.flac" WAVE
  34.   TRACK 06 AUDIO
  35.     PERFORMER "Yppah & Josef Peters"
  36.     TITLE "Look to the Stars"
  37.     INDEX 01 00:00:00
  38. FILE "Yppah Yppah & Josef Peters - Nightscapes - 07 Stellar Flares.flac" WAVE
  39.   TRACK 07 AUDIO
  40.     PERFORMER "Yppah & Josef Peters"
  41.     TITLE "Stellar Flares"
  42.     INDEX 01 00:00:00
  43. FILE "Yppah Yppah & Josef Peters - Nightscapes - 08 Youth Debut.flac" WAVE
  44.   TRACK 08 AUDIO
  45.     PERFORMER "Yppah & Josef Peters"
  46.     TITLE "Youth Debut"
  47.     INDEX 01 00:00:00
  48. FILE "Yppah Yppah & Josef Peters - Nightscapes - 09 Microcity.flac" WAVE
  49.   TRACK 09 AUDIO
  50.     PERFORMER "Yppah & Josef Peters"
  51.     TITLE "Microcity"
  52.     INDEX 01 00:00:00
  53. FILE "Yppah Yppah & Josef Peters - Nightscapes - 10 Wash In The Sea.flac" WAVE
  54.   TRACK 10 AUDIO
  55.     PERFORMER "Yppah & Josef Peters"
  56.     TITLE "Wash in the Sea"
  57.     INDEX 01 00:00:00
RAW Paste Data
We use cookies for various purposes including analytics. By continuing to use Pastebin, you agree to our use of cookies as described in the Cookies Policy. OK, I Understand
Top