Advertisement
Henry_Kr

Inv-S01

Mar 26th, 2021
113
Never
Not a member of Pastebin yet? Sign Up, it unlocks many cool features!
  1. Video
  2. ID : 1
  3. Format : AVC
  4. Format/Info : Advanced Video Codec
  5. Format profile : High@L4
  6. Format settings : CABAC / 4 Ref Frames
  7. Format settings, CABAC : Yes
  8. Format settings, Reference : 4 frames
  9. Muxing mode : Header stripping
  10. Codec ID : V_MPEG4/ISO/AVC
  11. Duration : 47 min 30 s
  12. Bit rate mode : Constant
  13. Bit rate : 3 529 kb/s
  14. Nominal bit rate : 10 000 kb/s
  15. Width : 1 920 pixels
  16. Height : 1 080 pixels
  17. Display aspect ratio : 16:9
  18. Frame rate mode : Constant
  19. Frame rate : 24.000 FPS
  20. Color space : YUV
  21. Chroma subsampling : 4:2:0
  22. Bit depth : 8 bits
  23. Scan type : Progressive
  24. Bits/(Pixel*Frame) : 0.071
  25. Stream size : 1.17 GiB (72%)
  26. Title : Invincible.S01E01.Já.Estava.Na.Hora.1080p.AMZN.WEB.[CartoonNOW]
  27. Language : English
  28. Default : Yes
  29. Forced : No
  30. Color range : Limited
  31. Color primaries : BT.709
  32. Transfer characteristics : BT.709
  33. Matrix coefficients : BT.709
  34.  
  35. Audio #1
  36. ID : 2
  37. Format : E-AC-3
  38. Format/Info : Enhanced AC-3
  39. Commercial name : Dolby Digital Plus
  40. Muxing mode : Header stripping
  41. Codec ID : A_EAC3
  42. Duration : 47 min 30 s
  43. Bit rate mode : Constant
  44. Bit rate : 640 kb/s
  45. Channel(s) : 6 channels
  46. Channel layout : L R C LFE Ls Rs
  47. Sampling rate : 48.0 kHz
  48. Frame rate : 31.250 FPS (1536 SPF)
  49. Compression mode : Lossy
  50. Stream size : 218 MiB (13%)
  51. Title : E-AC3 5.1
  52. Language : Portuguese
  53. Service kind : Complete Main
  54. Default : Yes
  55. Forced : No
  56.  
  57. Audio #2
  58. ID : 3
  59. Format : E-AC-3
  60. Format/Info : Enhanced AC-3
  61. Commercial name : Dolby Digital Plus
  62. Muxing mode : Header stripping
  63. Codec ID : A_EAC3
  64. Duration : 47 min 30 s
  65. Bit rate mode : Constant
  66. Bit rate : 640 kb/s
  67. Channel(s) : 6 channels
  68. Channel layout : L R C LFE Ls Rs
  69. Sampling rate : 48.0 kHz
  70. Frame rate : 31.250 FPS (1536 SPF)
  71. Compression mode : Lossy
  72. Stream size : 218 MiB (13%)
  73. Title : E-AC3 5.1
  74. Language : English
  75. Service kind : Complete Main
  76. Default : No
  77. Forced : No
  78.  
  79. Text #1
  80. ID : 4
  81. Format : UTF-8
  82. Codec ID : S_TEXT/UTF8
  83. Codec ID/Info : UTF-8 Plain Text
  84. Title : Forçada
  85. Language : Portuguese
  86. Default : No
  87. Forced : Yes
  88.  
  89. Text #2
  90. ID : 5
  91. Format : UTF-8
  92. Codec ID : S_TEXT/UTF8
  93. Codec ID/Info : UTF-8 Plain Text
  94. Title : Completa
  95. Language : Portuguese
  96. Default : No
  97. Forced : No
  98.  
  99. Menu
  100. 00:00:00.000 : en:Amazon Original
  101. 00:00:05.000 : en:Disclaimer
  102. 00:00:15.000 : en:Scene 3
  103. 00:09:13.000 : en:Scene 4
  104. 00:11:44.000 : en:Scene 5
  105. 00:13:37.000 : en:Scene 6
  106. 00:17:23.000 : en:Scene 7
  107. 00:18:49.000 : en:Scene 8
  108. 00:22:25.000 : en:Scene 9
  109. 00:23:15.000 : en:Scene 10
  110. 00:24:24.000 : en:Scene 11
  111. 00:27:39.000 : en:Scene 12
  112. 00:29:48.000 : en:Scene 13
  113. 00:32:36.000 : en:Scene 14
  114. 00:34:13.000 : en:Scene 15
  115. 00:34:23.000 : en:Scene 16
  116. 00:37:09.000 : en:Title Sequence
  117. 00:37:14.000 : en:Scene 18
  118. 00:38:37.000 : en:Scene 19
  119. 00:39:02.000 : en:Scene 20
  120. 00:39:25.000 : en:Scene 21
  121. 00:40:04.000 : en:Scene 22
  122. 00:40:53.000 : en:Scene 23
  123. 00:41:20.000 : en:Scene 24
  124. 00:42:24.000 : en:Scene 25
  125. 00:46:21.000 : en:End Credits
Advertisement
RAW Paste Data Copied
Advertisement