Guest User

Untitled

a guest
Nov 25th, 2020
30
Never
Not a member of Pastebin yet? Sign Up, it unlocks many cool features!
  1. Format : Matroska
  2. Format version : Version 4
  3. File size : 6.49 GiB
  4. Duration : 1 h 29 min
  5. Overall bit rate : 10.4 Mb/s
  6. Encoded date : UTC 2020-11-25 22:51:20
  7. Writing application : mkvmerge v51.0.0 ('I Wish') 64-bit
  8. Writing library : libebml v1.4.0 + libmatroska v1.6.2
  9.  
  10. Video
  11. ID : 1
  12. Format : AVC
  13. Format/Info : Advanced Video Codec
  14. Format profile : High@L4.1
  15. Format settings : CABAC / 4 Ref Frames
  16. Format settings, CABAC : Yes
  17. Format settings, Reference : 4 frames
  18. Codec ID : V_MPEG4/ISO/AVC
  19. Duration : 1 h 29 min
  20. Bit rate : 8 521 kb/s
  21. Width : 1 920 pixels
  22. Height : 798 pixels
  23. Display aspect ratio : 2.40:1
  24. Frame rate mode : Constant
  25. Frame rate : 23.976 (24000/1001) FPS
  26. Color space : YUV
  27. Chroma subsampling : 4:2:0
  28. Bit depth : 8 bits
  29. Scan type : Progressive
  30. Bits/(Pixel*Frame) : 0.232
  31. Stream size : 5.31 GiB (82%)
  32. Title : CHD
  33. Writing library : x264 core 157 r2867+150 7e91e0e t_mod_Custom_2 [8-bit@all X86_64]
  34. Encoding settings : cabac=1 / ref=4 / deblock=1:-3:-3 / analyse=0x3:0x133 / me=umh / subme=10 / psy=1 / fade_compensate=0.00 / psy_rd=0.95:0.10 / mixed_ref=1 / me_range=48 / chroma_me=1 / trellis=2 / 8x8dct=1 / cqm=0 / deadzone=21,11 / fast_pskip=0 / chroma_qp_offset=-4 / threads=18 / lookahead_threads=3 / sliced_threads=0 / nr=0 / decimate=1 / interlaced=0 / bluray_compat=0 / constrained_intra=0 / fgo=0 / bframes=8 / b_pyramid=2 / b_adapt=2 / b_bias=0 / direct=3 / weightb=1 / open_gop=0 / weightp=2 / keyint=250 / keyint_min=23 / scenecut=40 / intra_refresh=0 / rc_lookahead=60 / rc=crf / mbtree=0 / crf=20.5000 / qcomp=0.70 / qpmin=0:0:0 / qpmax=69:69:69 / qpstep=4 / vbv_maxrate=35000 / vbv_bufsize=35000 / crf_max=0.0 / nal_hrd=none / filler=0 / ip_ratio=1.40 / pb_ratio=1.30 / aq=3:1.00 / aq-sensitivity=10.00 / aq-factor=1.00:1.00:1.00 / aq2=0 / aq3=2:[0.50:0.50]:[0.50:0.50]:[0.50:0.50]:[0.50:0.50] / aq3-sensitivity=10.00 / aq3-factor=[1.00:1.00]:[1.00:1.00]:[1.00:1.00] / aq3-boundary=192:64:24
  35. Language : English
  36. Default : Yes
  37. Forced : No
  38.  
  39. Audio #1
  40. ID : 2
  41. Format : AC-3
  42. Format/Info : Audio Coding 3
  43. Commercial name : Dolby Digital
  44. Codec ID : A_AC3
  45. Duration : 1 h 29 min
  46. Bit rate mode : Constant
  47. Bit rate : 384 kb/s
  48. Channel(s) : 6 channels
  49. Channel layout : L R C LFE Ls Rs
  50. Sampling rate : 48.0 kHz
  51. Frame rate : 31.250 FPS (1536 SPF)
  52. Compression mode : Lossy
  53. Stream size : 245 MiB (4%)
  54. Title : iTunes 5.1 (ELEKTRI4KA)
  55. Language : Russian
  56. Service kind : Complete Main
  57. Default : Yes
  58. Forced : No
  59.  
  60. Audio #2
  61. ID : 3
  62. Format : DTS
  63. Format/Info : Digital Theater Systems
  64. Codec ID : A_DTS
  65. Duration : 1 h 29 min
  66. Bit rate mode : Constant
  67. Bit rate : 1 509 kb/s
  68. Channel(s) : 6 channels
  69. Channel layout : C L R Ls Rs LFE
  70. Sampling rate : 48.0 kHz
  71. Frame rate : 93.750 FPS (512 SPF)
  72. Bit depth : 24 bits
  73. Compression mode : Lossy
  74. Stream size : 963 MiB (14%)
  75. Language : English
  76. Default : No
  77. Forced : No
  78.  
  79. Text
  80. ID : 4
  81. Format : UTF-8
  82. Codec ID : S_TEXT/UTF8
  83. Codec ID/Info : UTF-8 Plain Text
  84. Duration : 1 h 28 min
  85. Bit rate : 37 b/s
  86. Count of elements : 873
  87. Stream size : 24.2 KiB (0%)
  88. Language : English
  89. Default : No
  90. Forced : No
  91.  
  92. Menu
  93. 00:00:00.000 : :绗?01 绔?
  94. 00:08:04.150 : :绗?02 绔?
  95. 00:19:06.979 : :绗?03 绔?
  96. 00:27:55.465 : :绗?04 绔?
  97. 00:38:40.276 : :绗?05 绔?
  98. 00:47:27.678 : :绗?06 绔?
  99. 01:05:47.944 : :绗?07 绔?
  100. 01:24:13.006 : :绗?08 绔?
RAW Paste Data