Advertisement
Henry_Kr

SS1986-S01

Mar 16th, 2024
99
0
Never
Not a member of Pastebin yet? Sign Up, it unlocks many cool features!
text 5.13 KB | None | 0 0
  1. Video
  2. ID : 1
  3. Format : AVC
  4. Format/Info : Advanced Video Codec
  5. Format profile : High@L4.1
  6. Format settings : CABAC / 4 Ref Frames
  7. Format settings, CABAC : Yes
  8. Format settings, Reference : 4 frames
  9. Codec ID : V_MPEG4/ISO/AVC
  10. Duration : 24 min 21 s
  11. Bit rate : 10 000 kb/s
  12. Width : 1 920 pixels
  13. Height : 1 080 pixels
  14. Display aspect ratio : 16:9
  15. Frame rate mode : Constant
  16. Frame rate : 23.976 (23976/1000) FPS
  17. Color space : YUV
  18. Chroma subsampling : 4:2:0
  19. Bit depth : 8 bits
  20. Scan type : Progressive
  21. Bits/(Pixel*Frame) : 0.201
  22. Stream size : 1.70 GiB (94%)
  23. Title : Saint.Seiya.1986.S01E01.REPACK.1080p.BluRay.[CartoonNOW]
  24. Writing library : x264 core 164 r3065 ae03d92
  25. Encoding settings : cabac=1 / ref=3 / deblock=1:0:0 / analyse=0x3:0x113 / me=hex / subme=7 / psy=1 / psy_rd=1.00:0.00 / mixed_ref=1 / me_range=16 / chroma_me=1 / trellis=1 / 8x8dct=1 / cqm=0 / deadzone=21,11 / fast_pskip=1 / chroma_qp_offset=-2 / threads=24 / lookahead_threads=4 / sliced_threads=0 / nr=0 / decimate=1 / interlaced=0 / bluray_compat=0 / constrained_intra=0 / bframes=3 / b_pyramid=2 / b_adapt=1 / b_bias=0 / direct=1 / weightb=1 / open_gop=0 / weightp=2 / keyint=240 / keyint_min=24 / scenecut=40 / intra_refresh=0 / rc_lookahead=40 / rc=2pass / mbtree=1 / bitrate=10000 / ratetol=1.0 / qcomp=0.60 / qpmin=0 / qpmax=69 / qpstep=4 / cplxblur=20.0 / qblur=0.5 / vbv_maxrate=62500 / vbv_bufsize=78125 / nal_hrd=none / filler=0 / ip_ratio=1.40 / aq=1:1.00
  26. Language : Japanese
  27. Default : Yes
  28. Forced : No
  29. Color range : Limited
  30. Color primaries : BT.709
  31. Transfer characteristics : BT.709
  32. Matrix coefficients : BT.709
  33.  
  34. Audio #1
  35. ID : 2
  36. Format : AC-3
  37. Format/Info : Audio Coding 3
  38. Commercial name : Dolby Digital
  39. Codec ID : A_AC3
  40. Duration : 24 min 20 s
  41. Bit rate mode : Constant
  42. Bit rate : 224 kb/s
  43. Channel(s) : 2 channels
  44. Channel layout : L R
  45. Sampling rate : 48.0 kHz
  46. Frame rate : 31.250 FPS (1536 SPF)
  47. Compression mode : Lossy
  48. Delay relative to video : 30 ms
  49. Stream size : 39.0 MiB (2%)
  50. Title : AC3 2.0 (Álamo)
  51. Language : Portuguese
  52. Service kind : Complete Main
  53. Default : Yes
  54. Forced : No
  55.  
  56. Audio #2
  57. ID : 3
  58. Format : AC-3
  59. Format/Info : Audio Coding 3
  60. Commercial name : Dolby Digital
  61. Codec ID : A_AC3
  62. Duration : 24 min 20 s
  63. Bit rate mode : Constant
  64. Bit rate : 224 kb/s
  65. Channel(s) : 2 channels
  66. Channel layout : L R
  67. Sampling rate : 48.0 kHz
  68. Frame rate : 31.250 FPS (1536 SPF)
  69. Compression mode : Lossy
  70. Stream size : 39.0 MiB (2%)
  71. Title : AC3 2.0 (Gota Mágica)
  72. Language : Portuguese
  73. Service kind : Complete Main
  74. Default : No
  75. Forced : No
  76.  
  77. Audio #3
  78. ID : 4
  79. Format : AC-3
  80. Format/Info : Audio Coding 3
  81. Commercial name : Dolby Digital
  82. Codec ID : A_AC3
  83. Duration : 24 min 21 s
  84. Bit rate mode : Constant
  85. Bit rate : 192 kb/s
  86. Channel(s) : 2 channels
  87. Channel layout : L R
  88. Sampling rate : 48.0 kHz
  89. Frame rate : 31.250 FPS (1536 SPF)
  90. Compression mode : Lossy
  91. Stream size : 33.4 MiB (2%)
  92. Title : AC3 2.0
  93. Language : Japanese
  94. Service kind : Complete Main
  95. Default : No
  96. Forced : No
  97.  
  98. Text
  99. ID : 5
  100. Format : ASS
  101. Codec ID : S_TEXT/ASS
  102. Codec ID/Info : Advanced Sub Station Alpha
  103. Duration : 22 min 47 s
  104. Bit rate : 117 b/s
  105. Count of elements : 249
  106. Compression mode : Lossless
  107. Stream size : 19.6 KiB (0%)
  108. Title : Completa
  109. Language : Portuguese
  110. Default : No
  111. Forced : No
  112.  
  113. Menu
  114. 00:00:00.000 : en:(01)00:00:00:000
  115. 00:01:24.959 : en:(02)00:01:24:959
  116. 00:11:56.716 : en:(03)00:11:56:716
  117. 00:22:41.068 : en:(04)00:22:41:068
  118. 00:23:52.431 : en:(05)00:23:52:431
Advertisement
Add Comment
Please, Sign In to add comment
Advertisement