SHARE
TWEET

Stranger Things: Season 2 1080p BluRay

dirtyharrys Jun 5th, 2019 (edited) 73 Never
Not a member of Pastebin yet? Sign Up, it unlocks many cool features!
  1. General
  2. Unique ID                   : 247752753624234602262178266856206015993 (0xBA6371D7EB91B9C19DD88D6E9DFA9DF9)
  3. Complete name               : E:\Stranger.Things.S02\ST-S02E01.mkv
  4. Format                      : Matroska
  5. Format version              : Version 4
  6. File size                   : 1.45 GiB
  7. Duration                    : 47 min 51 s
  8. Overall bit rate            : 4 338 kb/s
  9. Movie name                  : Stranger Things S02E01 / Stranger Things: Season Two
  10. Description                 : Episode 01: "Chapter One: MADMAX"
  11. Encoded date                : UTC 2019-04-23 02:13:13
  12. Writing application         : mkvmerge v8.9.0 ('Father Daughter') 64bit
  13. Writing library             : libebml v1.3.3 + libmatroska v1.4.4
  14. Copyright                   : Movies HDs 2019
  15. ARTIST                      : HarshLearner
  16.  
  17. Video
  18. ID                          : 1
  19. Format                      : HEVC
  20. Format/Info                 : High Efficiency Video Coding
  21. Format profile              : Main 10@L4@Main
  22. Codec ID                    : V_MPEGH/ISO/HEVC
  23. Duration                    : 46 min 55 s
  24. Bit rate                    : 3 378 kb/s
  25. Width                       : 1 920 pixels
  26. Height                      : 960 pixels
  27. Display aspect ratio        : 2.000
  28. Frame rate mode             : Constant
  29. Frame rate                  : 23.976 (24000/1001) FPS
  30. Color space                 : YUV
  31. Chroma subsampling          : 4:2:0
  32. Bit depth                   : 10 bits
  33. Bits/(Pixel*Frame)          : 0.076
  34. Stream size                 : 1.11 GiB (76%)
  35. Title                       : S02E01: Chapter One: MADMAX
  36. Writing library             : x265 3.0+1-ed72af837053:[Windows][MSVC 1900][64 bit] 10bit
  37. Encoding settings           : cpuid=1111039 / frame-threads=3 / numa-pools=8 / wpp / no-pmode / no-pme / no-psnr / no-ssim / log-level=2 / input-csp=1 / input-res=1920x960 / interlace=0 / total-frames=67504 / level-idc=0 / high-tier=1 / uhd-bd=0 / ref=4 / no-allow-non-conformance / no-repeat-headers / annexb / no-aud / no-hrd / info / hash=0 / no-temporal-layers / open-gop / min-keyint=23 / keyint=250 / gop-lookahead=0 / bframes=8 / b-adapt=2 / b-pyramid / bframe-bias=0 / rc-lookahead=80 / lookahead-slices=4 / scenecut=40 / radl=0 / no-splice / no-intra-refresh / ctu=64 / min-cu-size=8 / no-rect / no-amp / max-tu-size=32 / tu-inter-depth=1 / tu-intra-depth=1 / limit-tu=0 / rdoq-level=2 / dynamic-rd=0.00 / no-ssim-rd / signhide / no-tskip / nr-intra=0 / nr-inter=0 / no-constrained-intra / no-strong-intra-smoothing / max-merge=3 / limit-refs=3 / limit-modes / me=3 / subme=5 / merange=57 / temporal-mvp / weightp / weightb / no-analyze-src-pics / deblock=-3:-3 / no-sao / no-sao-non-deblock / rd=4 / no-early-skip / rskip / no-fast-intra / no-tskip-fast / no-cu-lossless / b-intra / no-splitrd-skip / rdpenalty=0 / psy-rd=1.50 / psy-rdoq=2.00 / no-rd-refine / no-lossless / cbqpoffs=0 / crqpoffs=0 / rc=crf / crf=20.5 / qcomp=0.60 / qpstep=4 / stats-write=0 / stats-read=0 / ipratio=1.40 / pbratio=1.30 / aq-mode=3 / aq-strength=1.00 / cutree / zone-count=0 / no-strict-cbr / qg-size=32 / no-rc-grain / qpmax=69 / qpmin=0 / no-const-vbv / sar=0 / overscan=0 / videoformat=5 / range=0 / colorprim=2 / transfer=2 / colormatrix=2 / chromaloc=0 / display-window=0 / max-cll=0,0 / min-luma=0 / max-luma=1023 / log2-max-poc-lsb=8 / vui-timing-info / vui-hrd-info / slices=1 / no-opt-qp-pps / no-opt-ref-list-length-pps / no-multi-pass-opt-rps / scenecut-bias=0.05 / no-opt-cu-delta-qp / no-aq-motion / no-hdr / no-hdr-opt / no-dhdr10-opt / no-idr-recovery-sei / analysis-reuse-level=5 / scale-factor=0 / refine-intra=0 / refine-inter=0 / refine-mv=0 / refine-ctu-distortion=0 / no-limit-sao / ctu-info=0 / no-lowpass-dct / refine-analysis-type=0 / copy-pic=1 / max-ausize-factor=1.0 / no-dynamic-refine / no-single-sei / no-hevc-aq / qp-adaptation-range=1.00
  38. Default                     : Yes
  39. Forced                      : No
  40.  
  41. Audio #1
  42. ID                          : 2
  43. Format                      : AAC LC
  44. Format/Info                 : Advanced Audio Codec Low Complexity
  45. Codec ID                    : A_AAC-2
  46. Duration                    : 46 min 55 s
  47. Bit rate                    : 371 kb/s
  48. Channel(s)                  : 6 channels
  49. Channel layout              : C L R Ls Rs LFE
  50. Sampling rate               : 48.0 kHz
  51. Frame rate                  : 46.875 FPS (1024 SPF)
  52. Compression mode            : Lossy
  53. Delay relative to video     : 20 ms
  54. Stream size                 : 124 MiB (8%)
  55. Language                    : English
  56. Default                     : No
  57. Forced                      : No
  58.  
  59. Audio #2
  60. ID                          : 3
  61. Format                      : E-AC-3
  62. Format/Info                 : Enhanced AC-3
  63. Commercial name             : Dolby Digital Plus
  64. Codec ID                    : A_EAC3
  65. Duration                    : 47 min 51 s
  66. Bit rate mode               : Constant
  67. Bit rate                    : 640 kb/s
  68. Channel(s)                  : 6 channels
  69. Channel layout              : L R C LFE Ls Rs
  70. Sampling rate               : 48.0 kHz
  71. Frame rate                  : 31.250 FPS (1536 SPF)
  72. Compression mode            : Lossy
  73. Stream size                 : 219 MiB (15%)
  74. Language                    : Spanish
  75. Service kind                : Complete Main
  76. Default                     : Yes
  77. Forced                      : Yes
  78.  
  79. Text #1
  80. ID                          : 4
  81. Format                      : PGS
  82. Muxing mode                 : zlib
  83. Codec ID                    : S_HDMV/PGS
  84. Codec ID/Info               : Picture based subtitle format used on BDs/HD-DVDs
  85. Duration                    : 44 min 39 s
  86. Bit rate                    : 11.5 kb/s
  87. Count of elements           : 1161
  88. Stream size                 : 3.67 MiB (0%)
  89. Language                    : English
  90. Default                     : No
  91. Forced                      : No
  92.  
  93. Text #2
  94. ID                          : 5
  95. Format                      : PGS
  96. Muxing mode                 : zlib
  97. Codec ID                    : S_HDMV/PGS
  98. Codec ID/Info               : Picture based subtitle format used on BDs/HD-DVDs
  99. Duration                    : 44 min 52 s
  100. Bit rate                    : 9 385 b/s
  101. Count of elements           : 1021
  102. Stream size                 : 3.01 MiB (0%)
  103. Language                    : Spanish
  104. Default                     : No
  105. Forced                      : No
  106.  
  107. Text #3
  108. ID                          : 6
  109. Format                      : UTF-8
  110. Codec ID                    : S_TEXT/UTF8
  111. Codec ID/Info               : UTF-8 Plain Text
  112. Duration                    : 44 min 39 s
  113. Bit rate                    : 63 b/s
  114. Count of elements           : 579
  115. Stream size                 : 20.7 KiB (0%)
  116. Language                    : English
  117. Default                     : No
  118. Forced                      : No
  119.  
  120. Text #4
  121. ID                          : 7
  122. Format                      : UTF-8
  123. Codec ID                    : S_TEXT/UTF8
  124. Codec ID/Info               : UTF-8 Plain Text
  125. Duration                    : 44 min 52 s
  126. Bit rate                    : 50 b/s
  127. Count of elements           : 510
  128. Stream size                 : 16.4 KiB (0%)
  129. Language                    : Spanish
  130. Default                     : Yes
  131. Forced                      : Yes
  132.  
  133. Text #5
  134. ID                          : 8
  135. Format                      : UTF-8
  136. Codec ID                    : S_TEXT/UTF8
  137. Codec ID/Info               : UTF-8 Plain Text
  138. Duration                    : 46 min 17 s
  139. Bit rate                    : 1 b/s
  140. Count of elements           : 18
  141. Stream size                 : 439 Bytes (0%)
  142. Language                    : Spanish
  143. Default                     : No
  144. Forced                      : No
  145.  
  146. Menu
  147. 00:00:00.000                : en:Chapter 1
  148. 00:10:07.941                : en:Chapter 2
  149. 00:20:38.988                : en:Chapter 3
  150. 00:30:07.097                : en:Chapter 4
  151. 00:40:09.991                : en:Chapter 5
  152. 00:45:02.783                : en:Chapter 6
RAW Paste Data
We use cookies for various purposes including analytics. By continuing to use Pastebin, you agree to our use of cookies as described in the Cookies Policy. OK, I Understand
 
Top