Advertisement
trds

Untitled

Jan 11th, 2022
607
Never
Not a member of Pastebin yet? Sign Up, it unlocks many cool features!
  1. eneral
  2. Unique ID : 328569635414426573702053424887307785079 (0xF73035C056AE592ECF5E71E3107D5377)
  3. Complete name : Ten.Little.Indians.1974.1080p.BluRay.SCORPION.Plus.Comm.DTS.x264-MaG.mkv
  4. Format : Matroska
  5. Format version : Version 4 / Version 2
  6. File size : 9.92 GiB
  7. Duration : 1 h 38 min
  8. Overall bit rate : 14.5 Mb/s
  9. Encoded date : UTC 2018-08-22T00:52:22Z
  10. Writing application : HandBrake 1.0.7 2017040900
  11. Writing library : Lavf57.7.2
  12.  
  13. Video
  14. ID : 1
  15. Format : AVC
  16. Format/Info : Advanced Video Codec
  17. Format profile : High@L4.1
  18. Format settings, CABAC : Yes
  19. Format settings, ReFrames : 4 frames
  20. Codec ID : V_MPEG4/ISO/AVC
  21. Duration : 1 h 38 min
  22. Bit rate : 12.5 Mb/s
  23. Width : 1 796 pixels
  24. Height : 1 080 pixels
  25. Display aspect ratio : 5:3
  26. Frame rate mode : Constant
  27. Frame rate : 23.976 (24000/1001) FPS
  28. Color space : YUV
  29. Chroma subsampling : 4:2:0
  30. Bit depth : 8 bits
  31. Scan type : Progressive
  32. Bits/(Pixel*Frame) : 0.268
  33. Stream size : 8.56 GiB (86%)
  34. Writing library : x264 core 148 r2708 86b7198
  35. Encoding settings : cabac=1 / ref=4 / deblock=1:-3:-3 / analyse=0x3:0x133 / me=umh / subme=9 / psy=1 / psy_rd=1.00:0.00 / mixed_ref=1 / me_range=24 / chroma_me=1 / trellis=2 / 8x8dct=1 / cqm=0 / deadzone=21,11 / fast_pskip=0 / chroma_qp_offset=-2 / threads=6 / lookahead_threads=1 / sliced_threads=0 / nr=0 / decimate=1 / interlaced=0 / bluray_compat=0 / constrained_intra=0 / bframes=6 / b_pyramid=2 / b_adapt=2 / b_bias=0 / direct=3 / weightb=1 / open_gop=0 / weightp=2 / keyint=240 / keyint_min=24 / scenecut=40 / intra_refresh=0 / rc_lookahead=60 / rc=crf / mbtree=1 / crf=18.0 / qcomp=0.60 / qpmin=0 / qpmax=69 / qpstep=4 / vbv_maxrate=62500 / vbv_bufsize=78125 / crf_max=0.0 / nal_hrd=none / filler=0 / ip_ratio=1.40 / aq=1:1.00
  36. Default : Yes
  37. Forced : No
  38. Color range : Limited
  39. Color primaries : BT.709
  40. Transfer characteristics : BT.709
  41. Matrix coefficients : BT.709
  42.  
  43. Audio #1
  44. ID : 2
  45. Format : DTS
  46. Format/Info : Digital Theater Systems
  47. Mode : 16
  48. Format settings, Endianness : Big
  49. Codec ID : A_DTS
  50. Duration : 1 h 38 min
  51. Bit rate mode : Constant
  52. Bit rate : 1 509 kb/s
  53. Channel(s) : 2 channels
  54. Channel positions : Front: L R
  55. Sampling rate : 48.0 kHz
  56. Frame rate : 93.750 FPS (512 spf)
  57. Bit depth : 24 bits
  58. Compression mode : Lossy
  59. Stream size : 1.03 GiB (10%)
  60. Title : DTS 2.0 Audio
  61. Language : English
  62. Default : Yes
  63. Forced : No
  64.  
  65. Audio #2
  66. ID : 3
  67. Format : AC-3
  68. Format/Info : Audio Coding 3
  69. Format settings, Endianness : Big
  70. Codec ID : A_AC3
  71. Duration : 1 h 38 min
  72. Bit rate mode : Constant
  73. Bit rate : 192 kb/s
  74. Channel(s) : 2 channels
  75. Channel positions : Front: L R
  76. Sampling rate : 48.0 kHz
  77. Frame rate : 31.250 FPS (1536 spf)
  78. Bit depth : 16 bits
  79. Compression mode : Lossy
  80. Stream size : 135 MiB (1%)
  81. Title : Commentary with Mondo Digital's Nathaniel Thompson and Howard S. Berger from Destructible Man
  82. Language : English
  83. Service kind : Complete Main
  84. Default : No
  85. Forced : No
  86.  
  87. Menu
  88. 00:00:00.000 : :Chapter 1
  89. 00:03:15.570 : :Chapter 2
  90. 00:10:31.172 : :Chapter 3
  91. 00:16:45.421 : :Chapter 4
  92. 00:26:37.846 : :Chapter 5
  93. 00:32:59.853 : :Chapter 6
  94. 00:38:15.543 : :Chapter 7
  95. 00:45:59.465 : :Chapter 8
  96. 00:52:35.569 : :Chapter 9
  97. 00:58:54.239 : :Chapter 10
  98. 01:05:06.069 : :Chapter 11
  99. 01:10:02.782 : :Chapter 12
  100. 01:18:11.520 : :Chapter 13
  101. 01:25:40.427 : :Chapter 14
  102. 01:31:59.889 : :Chapter 15
Advertisement
Advertisement
Advertisement
RAW Paste Data Copied
Advertisement