G2A Many GEOs
SHARE
TWEET

Untitled

a guest Jan 9th, 2020 94 Never
Not a member of Pastebin yet? Sign Up, it unlocks many cool features!
  1. Источник: Quest.for.Camelot.1998.1080p.WEB-DL.DD5.1.H.264-FGT
  2. General
  3. Unique ID : 216273730560786553070032425837127917560 (0xA2B4CE2DD9EFE1ECAD05F8A68685DFF8)
  4. Complete name : Quest.for.Camelot.1998.WEB-DL.1080p.mkv
  5. Format : Matroska
  6. Format version : Version 4
  7. File size : 4.39 GiB
  8. Duration : 1 h 25 min
  9. Overall bit rate : 7 308 kb/s
  10. Encoded date : UTC 2020-01-09 10:08:56
  11. Writing application : mkvmerge v7.1.0 ('Good Love') 64bit built on Jul 27 2014 13:06:55
  12. Writing library : libebml v1.3.0 + libmatroska v1.4.1
  13.  
  14. Video
  15. ID : 1
  16. Format : AVC
  17. Format/Info : Advanced Video Codec
  18. Format profile : High@L4
  19. Format settings : CABAC / 4 Ref Frames
  20. Format settings, CABAC : Yes
  21. Format settings, Reference fra : 4 frames
  22. Codec ID : V_MPEG4/ISO/AVC
  23. Duration : 1 h 25 min
  24. Bit rate : 5 385 kb/s
  25. Width : 1 920 pixels
  26. Height : 1 080 pixels
  27. Display aspect ratio : 16:9
  28. Frame rate mode : Constant
  29. Frame rate : 23.976 (23976/1000) FPS
  30. Color space : YUV
  31. Chroma subsampling : 4:2:0
  32. Bit depth : 8 bits
  33. Scan type : Progressive
  34. Bits/(Pixel*Frame) : 0.108
  35. Stream size : 3.23 GiB (74%)
  36. Language : English
  37. Default : Yes
  38. Forced : No
  39. Color range : Limited
  40. Color primaries : BT.709
  41. Transfer characteristics : BT.709
  42. Matrix coefficients : BT.709
  43.  
  44. Audio #1
  45. ID : 2
  46. Format : AC-3
  47. Format/Info : Audio Coding 3
  48. Commercial name : Dolby Digital
  49. Codec ID : A_AC3
  50. Duration : 1 h 25 min
  51. Bit rate mode : Constant
  52. Bit rate : 384 kb/s
  53. Channel(s) : 6 channels
  54. Channel layout : L R C LFE Ls Rs
  55. Sampling rate : 48.0 kHz
  56. Frame rate : 31.250 FPS (1536 SPF)
  57. Compression mode : Lossy
  58. Stream size : 236 MiB (5%)
  59. Title : Дубляж [R5]
  60. Language : Russian
  61. Service kind : Complete Main
  62. Default : Yes
  63. Forced : No
  64.  
  65. Audio #2
  66. ID : 3
  67. Format : AC-3
  68. Format/Info : Audio Coding 3
  69. Commercial name : Dolby Digital
  70. Codec ID : A_AC3
  71. Duration : 1 h 25 min
  72. Bit rate mode : Constant
  73. Bit rate : 384 kb/s
  74. Channel(s) : 2 channels
  75. Channel layout : L R
  76. Sampling rate : 48.0 kHz
  77. Frame rate : 31.250 FPS (1536 SPF)
  78. Compression mode : Lossy
  79. Stream size : 236 MiB (5%)
  80. Title : AVO Nikolay Antonov VHS-Hi-Fi rip by Home Video
  81. Language : Russian
  82. Service kind : Complete Main
  83. Default : No
  84. Forced : No
  85.  
  86. Audio #3
  87. ID : 4
  88. Format : AC-3
  89. Format/Info : Audio Coding 3
  90. Commercial name : Dolby Digital
  91. Codec ID : A_AC3
  92. Duration : 1 h 25 min
  93. Bit rate mode : Constant
  94. Bit rate : 384 kb/s
  95. Channel(s) : 2 channels
  96. Channel layout : L R
  97. Sampling rate : 48.0 kHz
  98. Frame rate : 31.250 FPS (1536 SPF)
  99. Compression mode : Lossy
  100. Stream size : 236 MiB (5%)
  101. Title : AVO Yuriy Jivov VHS-Hi-Fi rip by Home Video
  102. Language : Russian
  103. Service kind : Complete Main
  104. Default : No
  105. Forced : No
  106.  
  107. Audio #4
  108. ID : 5
  109. Format : AC-3
  110. Format/Info : Audio Coding 3
  111. Commercial name : Dolby Digital
  112. Codec ID : A_AC3
  113. Duration : 1 h 25 min
  114. Bit rate mode : Constant
  115. Bit rate : 192 kb/s
  116. Channel(s) : 2 channels
  117. Channel layout : L R
  118. Sampling rate : 48.0 kHz
  119. Frame rate : 31.250 FPS (1536 SPF)
  120. Compression mode : Lossy
  121. Stream size : 118 MiB (3%)
  122. Title : Профессиональный, многоголосый [VHS] |
  123. Language : Russian
  124. Service kind : Complete Main
  125. Default : No
  126. Forced : No
  127.  
  128. Audio #5
  129. ID : 6
  130. Format : AC-3
  131. Format/Info : Audio Coding 3
  132. Commercial name : Dolby Digital
  133. Codec ID : A_AC3
  134. Duration : 1 h 25 min
  135. Bit rate mode : Constant
  136. Bit rate : 192 kb/s
  137. Channel(s) : 2 channels
  138. Channel layout : L R
  139. Sampling rate : 48.0 kHz
  140. Frame rate : 31.250 FPS (1536 SPF)
  141. Compression mode : Lossy
  142. Stream size : 118 MiB (3%)
  143. Title : Профессиональный, двухголосый (1+1)
  144. Language : Ukrainian
  145. Service kind : Complete Main
  146. Default : No
  147. Forced : No
  148.  
  149. Audio #6
  150. ID : 7
  151. Format : AC-3
  152. Format/Info : Audio Coding 3
  153. Commercial name : Dolby Digital
  154. Codec ID : A_AC3
  155. Duration : 1 h 25 min
  156. Bit rate mode : Constant
  157. Bit rate : 384 kb/s
  158. Channel(s) : 6 channels
  159. Channel layout : L R C LFE Ls Rs
  160. Sampling rate : 48.0 kHz
  161. Frame rate : 31.250 FPS (1536 SPF)
  162. Compression mode : Lossy
  163. Stream size : 236 MiB (5%)
  164. Language : English
  165. Service kind : Complete Main
  166. Default : No
  167. Forced : No
  168.  
  169. Text #1
  170. ID : 8
  171. Format : UTF-8
  172. Codec ID : S_TEXT/UTF8
  173. Codec ID/Info : UTF-8 Plain Text
  174. Duration : 1 h 15 min
  175. Bit rate : 74 b/s
  176. Count of elements : 970
  177. Stream size : 41.2 KiB (0%)
  178. Title : Full
  179. Language : Russian
  180. Default : No
  181. Forced : No
  182.  
  183. Text #2
  184. ID : 9
  185. Format : UTF-8
  186. Codec ID : S_TEXT/UTF8
  187. Codec ID/Info : UTF-8 Plain Text
  188. Duration : 1 h 15 min
  189. Bit rate : 57 b/s
  190. Count of elements : 1207
  191. Stream size : 31.8 KiB (0%)
  192. Language : English
  193. Default : No
  194. Forced : No
  195.  
  196. Menu
  197. 00:00:00.000 : en:The Camelot Saga
  198. 00:04:13.127 : en:"United We Stand"
  199. 00:06:34.602 : en:Ruber Rebels
  200. 00:08:06.944 : en:"On My Father's Wings"
  201. 00:12:37.047 : en:Griffin Attacks
  202. 00:13:50.746 : en:Excalibur Lost
  203. 00:14:54.935 : en:Where's the Glory?
  204. 00:16:48.298 : en:Invaded ("Ruber")
  205. 00:21:42.217 : en:"The Prayer"
  206. 00:24:55.410 : en:Forbidden Forest
  207. 00:26:00.350 : en:Rescued by Garrett
  208. 00:27:05.582 : en:"I Stand All Alone"
  209. 00:31:36.352 : en:Searchers
  210. 00:33:30.299 : en:Dragon Country
  211. 00:34:57.553 : en:Devon and Cornwall
  212. 00:36:33.274 : en:Fiery Attack
  213. 00:38:26.971 : en:"If I Didn't Have You"
  214. 00:42:17.660 : en:Join Us, Find Them
  215. 00:44:07.436 : en:Good as Any Knight
  216. 00:46:12.478 : en:Face to Face
  217. 00:48:06.049 : en:Close Call
  218. 00:50:04.251 : en:"Looking Through Your Eyes"
  219. 00:54:06.618 : en:The Ogre; a Clue
  220. 00:55:55.268 : en:Wake-Up Call
  221. 00:57:52.802 : en:Slip-Sliding Away
  222. 00:59:31.192 : en:Where He Belongs
  223. 01:01:26.808 : en:"I Stand All Alone" (Reprise)
  224. 01:02:21.612 : en:In the Wrong Hands
  225. 01:06:29.860 : en:Inside Camelot
  226. 01:07:38.054 : en:Under Siege
  227. 01:09:42.887 : en:Hayride to Castle
  228. 01:11:06.387 : en:The Griffin Burned
  229. 01:11:58.981 : en:No False King
  230. 01:12:50.866 : en:His Unlucky Day
  231. 01:14:52.738 : en:Just Knighted
  232. 01:16:48.562 : en:End Credits
RAW Paste Data
Ledger Nano X - The secure hardware wallet
We use cookies for various purposes including analytics. By continuing to use Pastebin, you agree to our use of cookies as described in the Cookies Policy. OK, I Understand
Top