AlemaoPS

Untitled

Jul 29th, 2019
140
Never
Not a member of Pastebin yet? Sign Up, it unlocks many cool features!
  1. Video
  2. ID : 1
  3. Format : AVC
  4. Format/Info : Advanced Video Codec
  5. Format profile : High@L4
  6. Format settings : CABAC / 5 Ref Frames
  7. Format settings, CABAC : Yes
  8. Format settings, Reference frames : 5 frames
  9. Codec ID : V_MPEG4/ISO/AVC
  10. Duration : 3 h 1 min
  11. Bit rate : 4 527 kb/s
  12. Width : 1 920 pixels
  13. Height : 804 pixels
  14. Display aspect ratio : 2.40:1
  15. Frame rate mode : Constant
  16. Frame rate : 23.976 (23976/1000) FPS
  17. Color space : YUV
  18. Chroma subsampling : 4:2:0
  19. Bit depth : 8 bits
  20. Scan type : Progressive
  21. Bits/(Pixel*Frame) : 0.122
  22. Stream size : 5.74 GiB (92%)
  23. Title : Avengers.Endgame.2019.1080p.WEB-DL.DD5.1.H264-FGT
  24. Language : English
  25. Default : Yes
  26. Forced : No
  27. Color range : Limited
  28. Color primaries : BT.709
  29. Transfer characteristics : BT.709
  30. Matrix coefficients : BT.709
  31.  
  32. Audio
  33. ID : 2
  34. Format : AC-3
  35. Format/Info : Audio Coding 3
  36. Commercial name : Dolby Digital
  37. Codec ID : A_AC3
  38. Duration : 3 h 1 min
  39. Bit rate mode : Constant
  40. Bit rate : 384 kb/s
  41. Channel(s) : 6 channels
  42. Channel layout : L R C LFE Ls Rs
  43. Sampling rate : 48.0 kHz
  44. Frame rate : 31.250 FPS (1536 SPF)
  45. Bit depth : 16 bits
  46. Compression mode : Lossy
  47. Delay relative to video : -43 ms
  48. Stream size : 498 MiB (8%)
  49. Title : Avengers.Endgame.2019.1080p.WEB-DL.DD5.1.H264-FGT
  50. Language : English
  51. Service kind : Complete Main
  52. Default : Yes
  53. Forced : No
  54.  
  55. Text #1
  56. ID : 3
  57. Format : UTF-8
  58. Codec ID : S_TEXT/UTF8
  59. Codec ID/Info : UTF-8 Plain Text
  60. Duration : 2 h 47 min
  61. Bit rate : 50 b/s
  62. Count of elements : 2339
  63. Stream size : 61.6 KiB (0%)
  64. Language : English
  65. Default : Yes
  66. Forced : No
  67.  
  68. Text #2
  69. ID : 4
  70. Format : UTF-8
  71. Codec ID : S_TEXT/UTF8
  72. Codec ID/Info : UTF-8 Plain Text
  73. Duration : 3 h 0 min
  74. Bit rate : 52 b/s
  75. Count of elements : 2641
  76. Stream size : 68.9 KiB (0%)
  77. Title : SDH
  78. Language : English
  79. Default : No
  80. Forced : No
RAW Paste Data

Adblocker detected! Please consider disabling it...

We've detected AdBlock Plus or some other adblocking software preventing Pastebin.com from fully loading.

We don't have any obnoxious sound, or popup ads, we actively block these annoying types of ads!

Please add Pastebin.com to your ad blocker whitelist or disable your adblocking software.

×