SHARE
TWEET

Untitled

a guest Jan 23rd, 2020 67 Never
Not a member of Pastebin yet? Sign Up, it unlocks many cool features!
  1. General
  2. Complete name             : anadearmasir-20200106-0001.mp4
  3. Format                    : MPEG-4
  4. Format profile            : Base Media
  5. File size                 : 2.37 MiB
  6. Duration                  : 35 s 542 ms
  7. Overall bit rate          : 560 kb/s
  8. Writing application       : Lavf58.20.100
  9.  
  10. Video
  11. ID                        : 1
  12. Format                    : AVC
  13. Format/Info               : Advanced Video Codec
  14. Format profile            : Main
  15. Format level              : 3.1
  16. Format settings, CABAC    : Yes
  17. Format settings, Referenc : 5 frames
  18. Codec ID                  : avc1
  19. Duration                  : 35 s 534 ms
  20. Bit rate                  : 487 kb/s
  21. Width                     : 720 pixels
  22. Height                    : 480 pixels
  23. Display aspect ratio      : 3:2
  24. Frame rate mode           : Constant
  25. Frame rate                : 30.000 FPS
  26. Color space               : YUV
  27. Chroma subsampling        : 4:2:0
  28. Bit depth                 : 8 bits
  29. Scan type                 : Progressive
  30. Bits/(Pixel*Frame)        : 0.047
  31. Stream size               : 2.06 MiB (87%)
  32. Color range               : Limited
  33. Color primaries           : BT.601 PAL
  34. Transfer characteristics  : BT.601
  35. Matrix coefficients       : BT.601
  36. Codec_configuration_box   : avcC
  37.  
  38. Audio
  39. ID                        : 2
  40. Format                    : AAC LC
  41. Format/Info               : Advanced Audio Codec
  42. Codec ID                  : mp4a-40-2
  43. Duration                  : 35 s 542 ms
  44. Bit rate mode             : Constant
  45. Bit rate                  : 64.1 kb/s
  46. Channel(s)                : 2 channels
  47. Channel layout            : L R
  48. Sampling rate             : 48.0 kHz
  49. Frame rate                : 46.875 FPS (1024 SPF)
  50. Compression mode          : Lossy
  51. Stream size               : 278 KiB (11%)
  52. Default                   : Yes
  53. Alternate group           : 1
RAW Paste Data
We use cookies for various purposes including analytics. By continuing to use Pastebin, you agree to our use of cookies as described in the Cookies Policy. OK, I Understand
Top