Secasa

Untitled

May 25th, 2016
14
Never
Not a member of Pastebin yet? Sign Up, it unlocks many cool features!
  1. Format : Matroska
  2. Format version : Version 4 / Version 2
  3. File size : 7.90 GiB
  4. Duration : 1h 35mn
  5. Overall bit rate : 11.8 Mbps
  6. Encoded date : UTC 2016-05-24 23:21:12
  7. Writing application : mkvmerge v7.7.0 ('Six Voices') 32bit built on Feb 28 2015 23:23:00
  8. Writing library : libebml v1.3.1 + libmatroska v1.4.2
  9. DURATION : 01:27:42.389000000
  10. NUMBER_OF_FRAMES : 1420
  11. NUMBER_OF_BYTES : 51425
  12. _STATISTICS_WRITING_APP : mkvmerge v7.7.0 ('Six Voices') 32bit built on Feb 28 2015 23:23:00
  13. _STATISTICS_WRITING_DATE_UTC : 2016-05-24 23:21:12
  14. _STATISTICS_TAGS : BPS DURATION NUMBER_OF_FRAMES NUMBER_OF_BYTES
  15.  
  16. Video
  17. ID : 1
  18. Format : AVC
  19. Format/Info : Advanced Video Codec
  20. Format profile : High@L4.1
  21. Format settings, CABAC : Yes
  22. Format settings, ReFrames : 5 frames
  23. Codec ID : V_MPEG4/ISO/AVC
  24. Duration : 1h 35mn
  25. Bit rate : 9 965 Kbps
  26. Width : 1 920 pixels
  27. Height : 808 pixels
  28. Display aspect ratio : 2.40:1
  29. Frame rate mode : Constant
  30. Frame rate : 23.976 fps
  31. Color space : YUV
  32. Chroma subsampling : 4:2:0
  33. Bit depth : 8 bits
  34. Scan type : Progressive
  35. Bits/(Pixel*Frame) : 0.268
  36. Stream size : 6.48 GiB (82%)
  37. Writing library : x264 core 148 r2665 a01e339
  38. Encoding settings : cabac=1 / ref=5 / deblock=1:0:0 / analyse=0x3:0x113 / me=umh / subme=8 / psy=1 / psy_rd=1.00:0.00 / mixed_ref=1 / me_range=16 / chroma_me=1 / trellis=1 / 8x8dct=1 / cqm=0 / deadzone=21,11 / fast_pskip=0 / chroma_qp_offset=-2 / threads=24 / lookahead_threads=4 / sliced_threads=0 / nr=0 / decimate=1 / interlaced=0 / bluray_compat=0 / constrained_intra=0 / bframes=3 / b_pyramid=2 / b_adapt=2 / b_bias=0 / direct=3 / weightb=1 / open_gop=0 / weightp=2 / keyint=250 / keyint_min=23 / scenecut=40 / intra_refresh=0 / rc_lookahead=50 / rc=2pass / mbtree=1 / bitrate=9965 / ratetol=1.0 / qcomp=0.60 / qpmin=0 / qpmax=69 / qpstep=4 / cplxblur=20.0 / qblur=0.5 / ip_ratio=1.40 / aq=1:1.00
  39. Language : English
  40. Default : Yes
  41. Forced : No
  42. DURATION : 01:35:29.349000000
  43. NUMBER_OF_FRAMES : 137367
  44. NUMBER_OF_BYTES : 7120023485
  45. _STATISTICS_WRITING_APP : mkvmerge v7.7.0 ('Six Voices') 32bit built on Feb 28 2015 23:23:00
  46. _STATISTICS_WRITING_DATE_UTC : 2016-05-24 23:21:12
  47. _STATISTICS_TAGS : BPS DURATION NUMBER_OF_FRAMES NUMBER_OF_BYTES
  48.  
  49. Audio #1
  50. ID : 2
  51. Format : AC-3
  52. Format/Info : Audio Coding 3
  53. Mode extension : CM (complete main)
  54. Format settings, Endianness : Big
  55. Codec ID : A_AC3
  56. Duration : 1h 35mn
  57. Bit rate mode : Constant
  58. Bit rate : 384 Kbps
  59. Channel count : 2 channels
  60. Channel positions : Front: L R
  61. Sampling rate : 48.0 KHz
  62. Bit depth : 16 bits
  63. Compression mode : Lossy
  64. Delay relative to video : 28ms
  65. Stream size : 262 MiB (3%)
  66. Language : Spanish
  67. Default : Yes
  68. Forced : Yes
  69.  
  70. Audio #2
  71. ID : 3
  72. Format : DTS
  73. Format/Info : Digital Theater Systems
  74. Mode : 16
  75. Format settings, Endianness : Big
  76. Codec ID : A_DTS
  77. Duration : 1h 35mn
  78. Bit rate mode : Constant
  79. Bit rate : 1 509 Kbps
  80. Channel count : 6 channels
  81. Channel positions : Front: L C R, Side: L R, LFE
  82. Sampling rate : 48.0 KHz
  83. Bit depth : 24 bits
  84. Compression mode : Lossy
  85. Stream size : 1.01 GiB (13%)
  86. Language : English
  87. Default : No
  88. Forced : No
  89.  
  90. Text #1
  91. ID : 4
  92. Format : UTF-8
  93. Codec ID : S_TEXT/UTF8
  94. Codec ID/Info : UTF-8 Plain Text
  95. Language : Spanish
  96. Default : No
  97. Forced : No
  98.  
  99. Text #2
  100. ID : 5
  101. Format : UTF-8
  102. Codec ID : S_TEXT/UTF8
  103. Codec ID/Info : UTF-8 Plain Text
  104. Language : English
  105. Default : No
  106. Forced : No
  107.  
  108. Menu
  109. 00:00:00.000 : en:1
  110. 00:04:39.000 : en:2
  111. 00:08:27.000 : en:3
  112. 00:11:42.000 : en:4
  113. 00:15:50.000 : en:5
  114. 00:19:01.000 : en:6
  115. 00:23:37.000 : en:7
  116. 00:27:31.000 : en:8
  117. 00:33:53.000 : en:9
  118. 00:39:13.000 : en:10
  119. 00:44:01.000 : en:11
  120. 00:46:11.000 : en:12
  121. 00:51:58.000 : en:13
  122. 00:56:41.000 : en:14
  123. 00:59:25.000 : en:15
  124. 01:04:26.000 : en:16
  125. 01:10:18.000 : en:17
  126. 01:16:42.000 : en:18
  127. 01:22:25.000 : en:19
  128. 01:28:04.000 : en:20
RAW Paste Data