SHARE
TWEET

[PAS] Junji Ito Collection - 03 [WEB 900p AAC][9C124BB6].mkv

a guest Jan 28th, 2018 19 Never
Not a member of Pastebin yet? Sign Up, it unlocks many cool features!
  1. General
  2. Unique ID                                : 247550275916079451976646016231049479699 (0xBA3C72EBF32D9D7FBBD486ADD2F74613)
  3. Format                                   : Matroska
  4. Format version                           : Version 4 / Version 2
  5. File size                                : 1.48 GiB
  6. Duration                                 : 23 min 38 s
  7. Overall bit rate                         : 8 939 kb/s
  8. Encoded date                             : UTC 2018-01-20 00:35:35
  9. Writing application                      : mkvmerge v16.0.0 ('Protest') 64-bit
  10. Writing library                          : libebml v1.3.5 + libmatroska v1.4.8
  11. Attachments                              : Ameretto Bold Italic.ttf / Berylium.ttf / DARK&BLACK.TTF / DK Crayon Crumble.ttf / DKCINNABARBRUSH.TTF / GOODFISH-BOLD.TTF / KGFALLFORYOU-BOLD.TTF / STRONGBOLDONE.TTF / amere_.ttf
  12.  
  13. Video
  14. ID                                       : 1
  15. Format                                   : AVC
  16. Format/Info                              : Advanced Video Codec
  17. Format profile                           : High 4:4:4 Predictive@L5
  18. Format settings, CABAC                   : Yes
  19. Format settings, ReFrames                : 16 frames
  20. Codec ID                                 : V_MPEG4/ISO/AVC
  21. Duration                                 : 23 min 38 s
  22. Bit rate                                 : 8 819 kb/s
  23. Width                                    : 1 600 pixels
  24. Height                                   : 900 pixels
  25. Display aspect ratio                     : 16:9
  26. Frame rate mode                          : Constant
  27. Frame rate                               : 23.976 (24000/1001) FPS
  28. Color space                              : YUV
  29. Chroma subsampling                       : 4:4:4
  30. Bit depth                                : 10 bits
  31. Scan type                                : Progressive
  32. Bits/(Pixel*Frame)                       : 0.255
  33. Stream size                              : 1.46 GiB (99%)
  34. Writing library                          : x264 core 155 r2893 b00bcaf
  35. Encoding settings                        : cabac=1 / ref=16 / deblock=1:-1:0 / analyse=0x1:0x131 / me=umh / subme=10 / psy=1 / psy_rd=0.90:0.00 / mixed_ref=1 / me_range=32 / chroma_me=1 / trellis=2 / 8x8dct=0 / cqm=0 / deadzone=21,11 / fast_pskip=0 / chroma_qp_offset=4 / threads=12 / lookahead_threads=3 / sliced_threads=0 / nr=0 / decimate=0 / interlaced=0 / bluray_compat=0 / constrained_intra=0 / bframes=16 / b_pyramid=2 / b_adapt=2 / b_bias=0 / direct=3 / weightb=1 / open_gop=0 / weightp=2 / keyint=240 / keyint_min=23 / scenecut=40 / intra_refresh=0 / rc_lookahead=48 / rc=crf / mbtree=1 / crf=18.0 / qcomp=0.70 / qpmin=0 / qpmax=81 / qpstep=4 / ip_ratio=1.40 / aq=3:0.80
  36. Language                                 : Japanese
  37. Default                                  : Yes
  38. Forced                                   : No
  39. Color range                              : Limited
  40. Matrix coefficients                      : BT.709
  41.  
  42. Audio
  43. ID                                       : 2
  44. Format                                   : AAC
  45. Format/Info                              : Advanced Audio Codec
  46. Format profile                           : LC
  47. Codec ID                                 : A_AAC
  48. Duration                                 : 23 min 38 s
  49. Bit rate                                 : 96.0 kb/s
  50. Channel(s)                               : 2 channels
  51. Channel positions                        : Front: L R
  52. Sampling rate                            : 44.1 kHz
  53. Frame rate                               : 43.066 FPS (1024 spf)
  54. Compression mode                         : Lossy
  55. Stream size                              : 16.2 MiB (1%)
  56. Language                                 : Japanese
  57. Default                                  : Yes
  58. Forced                                   : No
  59.  
  60. Text
  61. ID                                       : 3
  62. Format                                   : ASS
  63. Codec ID                                 : S_TEXT/ASS
  64. Codec ID/Info                            : Advanced Sub Station Alpha
  65. Duration                                 : 23 min 11 s
  66. Bit rate                                 : 9 669 b/s
  67. Count of elements                        : 18381
  68. Compression mode                         : Lossless
  69. Stream size                              : 1.60 MiB (0%)
  70. Language                                 : English
  71. Default                                  : Yes
  72. Forced                                   : No
  73.  
  74. Menu
  75. 00:00:00.000                             : :Intro
  76. 00:01:03.021                             : :OP
  77. 00:02:32.986                             : :Part A
  78. 00:18:36.865                             : :Part B
  79. 00:22:03.655                             : :ED
  80. 00:23:33.829                             : :Preview
RAW Paste Data
We use cookies for various purposes including analytics. By continuing to use Pastebin, you agree to our use of cookies as described in the Cookies Policy. OK, I Understand
Top