SHARE
TWEET

Arthur.1981.1080p.BluRay.REMUX.AVC.FLAC.1.0-EPSiLON

a guest Jun 17th, 2019 27 Never
Not a member of Pastebin yet? Sign Up, it unlocks many cool features!
  1. General
  2. Unique ID                                : 54593401667749687590019893004351270228 (0x29124E8423B2AB52BBB0E209FEB76D54)
  3. Complete name                            : Arthur.1981.1080p.BluRay.REMUX.AVC.FLAC.1.0-EPSiLON.mkv
  4. Format                                   : Matroska
  5. Format version                           : Version 4
  6. File size                                : 12.7 GiB
  7. Duration                                 : 1 h 37 min
  8. Overall bit rate mode                    : Variable
  9. Overall bit rate                         : 18.8 Mb/s
  10. Movie name                               : Arthur (1981)
  11. Encoded date                             : UTC 2018-11-21 20:34:44
  12. Writing application                      : mkvmerge v28.2.0 ('The Awakening') 64-bit
  13. Writing library                          : libebml v1.3.6 + libmatroska v1.4.9
  14.  
  15. Video
  16. ID                                       : 1
  17. Format                                   : AVC
  18. Format/Info                              : Advanced Video Codec
  19. Format profile                           : High@L4.1
  20. Format settings                          : CABAC / 2 Ref Frames
  21. Format settings, CABAC                   : Yes
  22. Format settings, Reference frames        : 2 frames
  23. Format settings, GOP                     : M=1, N=10
  24. Codec ID                                 : V_MPEG4/ISO/AVC
  25. Duration                                 : 1 h 37 min
  26. Bit rate mode                            : Variable
  27. Bit rate                                 : 18.0 Mb/s
  28. Width                                    : 1 920 pixels
  29. Height                                   : 1 080 pixels
  30. Display aspect ratio                     : 16:9
  31. Frame rate mode                          : Constant
  32. Frame rate                               : 23.976 (24000/1001) FPS
  33. Color space                              : YUV
  34. Chroma subsampling                       : 4:2:0
  35. Bit depth                                : 8 bits
  36. Scan type                                : Progressive
  37. Bits/(Pixel*Frame)                       : 0.361
  38. Stream size                              : 12.2 GiB (96%)
  39. Title                                    : MPEG-4 AVC Video / 17951 kbps / 1080p / 23.976 fps / 16:9 / High Profile 4.1
  40. Language                                 : English
  41. Default                                  : Yes
  42. Forced                                   : No
  43.  
  44. Audio
  45. ID                                       : 2
  46. Format                                   : FLAC
  47. Format/Info                              : Free Lossless Audio Codec
  48. Codec ID                                 : A_FLAC
  49. Duration                                 : 1 h 37 min
  50. Bit rate mode                            : Variable
  51. Bit rate                                 : 680 kb/s
  52. Channel(s)                               : 1 channel
  53. Channel layout                           : C
  54. Sampling rate                            : 48.0 kHz
  55. Frame rate                               : 11.719 FPS (4096 SPF)
  56. Bit depth                                : 24 bits
  57. Compression mode                         : Lossless
  58. Stream size                              : 472 MiB (4%)
  59. Title                                    : FLAC Audio / 1.0 / 48 kHz / 680 kbps / 24-bit
  60. Writing library                          : libFLAC 1.2.1 (UTC 2007-09-17)
  61. Language                                 : English
  62. Default                                  : Yes
  63. Forced                                   : No
  64.  
  65. Text #1
  66. ID                                       : 3
  67. Format                                   : PGS
  68. Codec ID                                 : S_HDMV/PGS
  69. Codec ID/Info                            : Picture based subtitle format used on BDs/HD-DVDs
  70. Duration                                 : 1 h 36 min
  71. Bit rate                                 : 39.2 kb/s
  72. Count of elements                        : 2752
  73. Stream size                              : 27.0 MiB (0%)
  74. Title                                    : SDH
  75. Language                                 : English
  76. Default                                  : No
  77. Forced                                   : No
  78.  
  79. Text #2
  80. ID                                       : 4
  81. Format                                   : PGS
  82. Codec ID                                 : S_HDMV/PGS
  83. Codec ID/Info                            : Picture based subtitle format used on BDs/HD-DVDs
  84. Duration                                 : 1 h 35 min
  85. Bit rate                                 : 29.6 kb/s
  86. Count of elements                        : 2644
  87. Stream size                              : 20.3 MiB (0%)
  88. Title                                    : Canadian
  89. Language                                 : French
  90. Default                                  : No
  91. Forced                                   : No
  92.  
  93. Text #3
  94. ID                                       : 5
  95. Format                                   : PGS
  96. Codec ID                                 : S_HDMV/PGS
  97. Codec ID/Info                            : Picture based subtitle format used on BDs/HD-DVDs
  98. Duration                                 : 1 h 36 min
  99. Bit rate                                 : 40.2 kb/s
  100. Count of elements                        : 2918
  101. Stream size                              : 27.7 MiB (0%)
  102. Language                                 : German
  103. Default                                  : No
  104. Forced                                   : No
  105.  
  106. Text #4
  107. ID                                       : 6
  108. Format                                   : PGS
  109. Codec ID                                 : S_HDMV/PGS
  110. Codec ID/Info                            : Picture based subtitle format used on BDs/HD-DVDs
  111. Duration                                 : 1 h 35 min
  112. Bit rate                                 : 33.4 kb/s
  113. Count of elements                        : 2636
  114. Stream size                              : 22.9 MiB (0%)
  115. Title                                    : Latin American
  116. Language                                 : Spanish
  117. Default                                  : No
  118. Forced                                   : No
  119.  
  120. Menu
  121. 00:00:00.000                             : en:Chapter 1
  122. 00:04:36.443                             : en:Chapter 2
  123. 00:10:22.288                             : en:Chapter 3
  124. 00:12:47.642                             : en:Chapter 4
  125. 00:16:03.421                             : en:Chapter 5
  126. 00:20:15.256                             : en:Chapter 6
  127. 00:24:22.836                             : en:Chapter 7
  128. 00:26:48.816                             : en:Chapter 8
  129. 00:29:12.250                             : en:Chapter 9
  130. 00:30:55.395                             : en:Chapter 10
  131. 00:33:50.278                             : en:Chapter 11
  132. 00:36:29.521                             : en:Chapter 12
  133. 00:38:07.744                             : en:Chapter 13
  134. 00:40:05.236                             : en:Chapter 14
  135. 00:47:21.505                             : en:Chapter 15
  136. 00:50:01.332                             : en:Chapter 16
  137. 00:52:07.249                             : en:Chapter 17
  138. 00:55:36.250                             : en:Chapter 18
  139. 00:57:42.793                             : en:Chapter 19
  140. 01:01:12.377                             : en:Chapter 20
  141. 01:04:36.164                             : en:Chapter 21
  142. 01:06:36.618                             : en:Chapter 22
  143. 01:10:52.832                             : en:Chapter 23
  144. 01:14:04.565                             : en:Chapter 24
  145. 01:18:22.448                             : en:Chapter 25
  146. 01:21:15.329                             : en:Chapter 26
  147. 01:23:27.461                             : en:Chapter 27
  148. 01:26:37.651                             : en:Chapter 28
  149. 01:30:20.332                             : en:Chapter 29
  150. 01:34:55.315                             : en:Chapter 30
RAW Paste Data
We use cookies for various purposes including analytics. By continuing to use Pastebin, you agree to our use of cookies as described in the Cookies Policy. OK, I Understand
Not a member of Pastebin yet?
Sign Up, it unlocks many cool features!
 
Top