SHARE
TWEET

2001: A Space Odyssey [Remastered] BluRay HEVC

dirtyharrys Jun 21st, 2019 68 Never
Not a member of Pastebin yet? Sign Up, it unlocks many cool features!
  1. General
  2. Unique ID                   : 165784256558403910314862483409248531301 (0x7CB8E2EB336CD79B385652D621553365)
  3. Complete name               : E:\2001.A.Space.Odyssey.Remastered.1968.BluRay.1080p.HEVC.x265\2001.A.Space.Odyssey.Remastered.1968.BluRay.1080p.HEVC.x265.mkv
  4. Format                      : Matroska
  5. Format version              : Version 4
  6. File size                   : 6.02 GiB
  7. Duration                    : 2 h 28 min
  8. Overall bit rate            : 5 791 kb/s
  9. Movie name                  : 2001: A Space Odyssey [Remastered] BluRay / 2001: A Space Odyssey [Remastered] BluRay
  10. Encoded date                : UTC 2019-06-18 09:08:04
  11. Writing application         : mkvmerge v30.1.0 ('Forever And More') 32-bit
  12. Writing library             : libebml v1.3.6 + libmatroska v1.4.9
  13. Copyright                   : Movies HDs 2019
  14. ARTIST                      : HarshLearner
  15.  
  16. Video
  17. ID                          : 1
  18. Format                      : HEVC
  19. Format/Info                 : High Efficiency Video Coding
  20. Format profile              : Main@L4@Main
  21. Codec ID                    : V_MPEGH/ISO/HEVC
  22. Duration                    : 2 h 28 min
  23. Bit rate                    : 4 497 kb/s
  24. Width                       : 1 920 pixels
  25. Height                      : 1 080 pixels
  26. Display aspect ratio        : 16:9
  27. Frame rate mode             : Constant
  28. Frame rate                  : 23.976 (24000/1001) FPS
  29. Original frame rate         : 23.976 (23976/1000) FPS
  30. Color space                 : YUV
  31. Chroma subsampling          : 4:2:0
  32. Bit depth                   : 8 bits
  33. Bits/(Pixel*Frame)          : 0.090
  34. Stream size                 : 4.68 GiB (78%)
  35. Title                       : 2001: A Space Odyssey [Remastered]
  36. Writing library             : x265 2.9+8-27d8424c799d:[Windows][MSVC 1915][64 bit] 8bit
  37. Encoding settings           : cpuid=1111039 / frame-threads=2 / numa-pools=6 / wpp / no-pmode / no-pme / no-psnr / no-ssim / log-level=2 / input-csp=1 / input-res=1920x1080 / interlace=0 / total-frames=0 / level-idc=0 / high-tier=1 / uhd-bd=0 / ref=4 / no-allow-non-conformance / no-repeat-headers / annexb / no-aud / no-hrd / info / hash=0 / no-temporal-layers / no-open-gop / min-keyint=23 / keyint=250 / gop-lookahead=0 / bframes=8 / b-adapt=2 / b-pyramid / bframe-bias=0 / rc-lookahead=30 / lookahead-slices=0 / scenecut=40 / radl=0 / no-intra-refresh / ctu=32 / min-cu-size=8 / no-rect / no-amp / max-tu-size=16 / tu-inter-depth=1 / tu-intra-depth=1 / limit-tu=0 / rdoq-level=2 / dynamic-rd=0.00 / no-ssim-rd / signhide / no-tskip / nr-intra=0 / nr-inter=0 / no-constrained-intra / strong-intra-smoothing / max-merge=3 / limit-refs=3 / limit-modes / me=3 / subme=5 / merange=25 / temporal-mvp / weightp / no-weightb / no-analyze-src-pics / deblock=-2:-2 / no-sao / no-sao-non-deblock / rd=3 / no-early-skip / rskip / no-fast-intra / no-tskip-fast / no-cu-lossless / no-b-intra / no-splitrd-skip / rdpenalty=0 / psy-rd=2.00 / psy-rdoq=1.00 / no-rd-refine / no-lossless / cbqpoffs=0 / crqpoffs=0 / rc=abr / bitrate=4500 / qcomp=0.75 / qpstep=4 / stats-write=0 / stats-read=2 / cplxblur=20.0 / qblur=0.5 / ipratio=1.40 / pbratio=1.20 / aq-mode=2 / aq-strength=1.50 / no-cutree / zone-count=0 / no-strict-cbr / qg-size=16 / no-rc-grain / qpmax=69 / qpmin=0 / no-const-vbv / sar=0 / overscan=0 / videoformat=5 / range=0 / colorprim=2 / transfer=2 / colormatrix=2 / chromaloc=0 / display-window=0 / max-cll=0,0 / min-luma=0 / max-luma=255 / log2-max-poc-lsb=8 / vui-timing-info / vui-hrd-info / slices=1 / no-opt-qp-pps / no-opt-ref-list-length-pps / no-multi-pass-opt-rps / scenecut-bias=0.05 / no-opt-cu-delta-qp / no-aq-motion / no-hdr / no-hdr-opt / no-dhdr10-opt / no-idr-recovery-sei / analysis-reuse-level=5 / scale-factor=0 / refine-intra=0 / refine-inter=0 / refine-mv=0 / no-limit-sao / ctu-info=0 / no-lowpass-dct / refine-mv-type=0 / copy-pic=1 / max-ausize-factor=1.0 / no-dynamic-refine / no-single-sei
  38. Default                     : Yes
  39. Forced                      : No
  40.  
  41. Audio #1
  42. ID                          : 2
  43. Format                      : E-AC-3
  44. Format/Info                 : Enhanced AC-3
  45. Commercial name             : Dolby Digital Plus
  46. Codec ID                    : A_EAC3
  47. Duration                    : 2 h 28 min
  48. Bit rate mode               : Constant
  49. Bit rate                    : 640 kb/s
  50. Channel(s)                  : 6 channels
  51. Channel layout              : L R C LFE Ls Rs
  52. Sampling rate               : 48.0 kHz
  53. Frame rate                  : 31.250 FPS (1536 SPF)
  54. Compression mode            : Lossy
  55. Stream size                 : 681 MiB (11%)
  56. Language                    : English
  57. Service kind                : Complete Main
  58. Default                     : No
  59. Forced                      : No
  60.  
  61. Audio #2
  62. ID                          : 3
  63. Format                      : AC-3
  64. Format/Info                 : Audio Coding 3
  65. Commercial name             : Dolby Digital
  66. Codec ID                    : A_AC3
  67. Duration                    : 2 h 28 min
  68. Bit rate mode               : Constant
  69. Bit rate                    : 192 kb/s
  70. Channel(s)                  : 2 channels
  71. Channel layout              : L R
  72. Sampling rate               : 48.0 kHz
  73. Frame rate                  : 31.250 FPS (1536 SPF)
  74. Bit depth                   : 16 bits
  75. Compression mode            : Lossy
  76. Stream size                 : 204 MiB (3%)
  77. Title                       : Latin American Original
  78. Language                    : Spanish
  79. Service kind                : Complete Main
  80. Default                     : Yes
  81. Forced                      : Yes
  82.  
  83. Audio #3
  84. ID                          : 4
  85. Format                      : AC-3
  86. Format/Info                 : Audio Coding 3
  87. Commercial name             : Dolby Digital
  88. Codec ID                    : A_AC3
  89. Duration                    : 2 h 28 min
  90. Bit rate mode               : Constant
  91. Bit rate                    : 448 kb/s
  92. Channel(s)                  : 6 channels
  93. Channel layout              : L R C LFE Ls Rs
  94. Sampling rate               : 48.0 kHz
  95. Frame rate                  : 31.250 FPS (1536 SPF)
  96. Bit depth                   : 16 bits
  97. Compression mode            : Lossy
  98. Stream size                 : 477 MiB (8%)
  99. Title                       : Latin American Remastered
  100. Language                    : Spanish
  101. Service kind                : Complete Main
  102. Default                     : No
  103. Forced                      : No
  104.  
  105. Text #1
  106. ID                          : 5
  107. Format                      : PGS
  108. Muxing mode                 : zlib
  109. Codec ID                    : S_HDMV/PGS
  110. Codec ID/Info               : Picture based subtitle format used on BDs/HD-DVDs
  111. Duration                    : 2 h 17 min
  112. Bit rate                    : 15.1 kb/s
  113. Count of elements           : 1334
  114. Stream size                 : 14.9 MiB (0%)
  115. Language                    : English
  116. Default                     : No
  117. Forced                      : No
  118.  
  119. Text #2
  120. ID                          : 6
  121. Format                      : PGS
  122. Muxing mode                 : zlib
  123. Codec ID                    : S_HDMV/PGS
  124. Codec ID/Info               : Picture based subtitle format used on BDs/HD-DVDs
  125. Duration                    : 2 h 20 min
  126. Bit rate                    : 12.1 kb/s
  127. Count of elements           : 1272
  128. Stream size                 : 12.1 MiB (0%)
  129. Language                    : Spanish
  130. Default                     : No
  131. Forced                      : No
  132.  
  133. Text #3
  134. ID                          : 7
  135. Format                      : UTF-8
  136. Codec ID                    : S_TEXT/UTF8
  137. Codec ID/Info               : UTF-8 Plain Text
  138. Duration                    : 1 h 31 min
  139. Bit rate                    : 39 b/s
  140. Count of elements           : 641
  141. Stream size                 : 26.6 KiB (0%)
  142. Language                    : English
  143. Default                     : No
  144. Forced                      : No
  145.  
  146. Text #4
  147. ID                          : 8
  148. Format                      : UTF-8
  149. Codec ID                    : S_TEXT/UTF8
  150. Codec ID/Info               : UTF-8 Plain Text
  151. Duration                    : 2 h 17 min
  152. Bit rate                    : 27 b/s
  153. Count of elements           : 667
  154. Stream size                 : 28.1 KiB (0%)
  155. Title                       : English SDH
  156. Language                    : English
  157. Default                     : No
  158. Forced                      : No
  159.  
  160. Text #5
  161. ID                          : 9
  162. Format                      : UTF-8
  163. Codec ID                    : S_TEXT/UTF8
  164. Codec ID/Info               : UTF-8 Plain Text
  165. Duration                    : 2 h 20 min
  166. Bit rate                    : 23 b/s
  167. Count of elements           : 636
  168. Stream size                 : 23.7 KiB (0%)
  169. Language                    : Spanish
  170. Default                     : Yes
  171. Forced                      : Yes
  172.  
  173. Menu
  174. 00:00:00.000                : en:Overture
  175. 00:02:57.393                : en:Main Title
  176. 00:04:39.328                : en:The Dawn of Man
  177. 00:11:40.165                : en:Apparition and Revelation
  178. 00:16:58.191                : en:The Fittest
  179. 00:19:53.241                : en:To the Moon
  180. 00:25:29.244                : en:Voice Print Identification
  181. 00:27:38.373                : en:Squirt
  182. 00:29:29.734                : en:Great Big Mystery
  183. 00:33:47.074                : en:Off to Clavius
  184. 00:41:08.849                : en:Purpose of the Visit
  185. 00:45:37.701                : en:Deliberately Buried
  186. 00:50:56.770                : en:The Monolith
  187. 00:54:41.995                : en:Jupiter Mission
  188. 00:58:33.935                : en:The World Tonight
  189. 01:03:56.257                : en:Frank's Parents
  190. 01:06:05.511                : en:Sketches and Suspicions
  191. 01:12:10.876                : en:Removing the Ae35
  192. 01:18:52.068                : en:Human Error?
  193. 01:23:01.734                : en:Bad Feeling
  194. 01:27:02.433                : en:Intermission
  195. 01:27:49.480                : en:Entr'acte
  196. 01:30:07.952                : en:Cut Adrift
  197. 01:32:51.073                : en:Rescue Mission
  198. 01:38:35.792                : en:Terminated
  199. 01:40:47.299                : en:Open the Pod Bay Doors
  200. 01:45:35.754                : en:Emergency Airlock
  201. 01:49:41.749                : en:My Mind Is Going
  202. 01:55:19.879                : en:Prerecorded Briefing
  203. 01:57:06.360                : en:Jupiter...
  204. 02:01:28.414                : en:...and Beyond the Infinite
  205. 02:11:33.602                : en:Future Selves
  206. 02:17:57.819                : en:Star Child
  207. 02:20:33.641                : en:End Credits & Exit Music
RAW Paste Data
We use cookies for various purposes including analytics. By continuing to use Pastebin, you agree to our use of cookies as described in the Cookies Policy. OK, I Understand
 
Top