Henry_Kr

BC-S01

Oct 30th, 2019
148
Never
Not a member of Pastebin yet? Sign Up, it unlocks many cool features!
  1. Video
  2. ID : 1
  3. Format : AVC
  4. Format/Info : Advanced Video Codec
  5. Format profile : Main@L4
  6. Format settings : CABAC / 4 Ref Frames
  7. Format settings, CABAC : Yes
  8. Format settings, Reference : 4 frames
  9. Muxing mode : Header stripping
  10. Codec ID : V_MPEG4/ISO/AVC
  11. Duration : 23 min 52 s
  12. Bit rate : 2 857 kb/s
  13. Width : 1 920 pixels
  14. Height : 1 080 pixels
  15. Display aspect ratio : 16:9
  16. Frame rate mode : Constant
  17. Frame rate : 23.976 (24000/1001) FPS
  18. Color space : YUV
  19. Chroma subsampling : 4:2:0
  20. Bit depth : 8 bits
  21. Scan type : Progressive
  22. Bits/(Pixel*Frame) : 0.057
  23. Stream size : 488 MiB (86%)
  24. Title : Black.Clover.S01E01.Asta.e.Yuno.1080p.Bluray.[CartoonNOW]
  25. Writing library : x264 core 155 r2901 7d0ff22
  26. Language : Japanese
  27. Default : Yes
  28. Forced : No
  29. Color range : Limited
  30. Color primaries : BT.709
  31. Transfer characteristics : BT.709
  32. Matrix coefficients : BT.709
  33.  
  34. Audio #1
  35. ID : 2
  36. Format : AC-3
  37. Format/Info : Audio Coding 3
  38. Commercial name : Dolby Digital
  39. Muxing mode : Header stripping
  40. Codec ID : A_AC3
  41. Duration : 23 min 52 s
  42. Bit rate mode : Constant
  43. Bit rate : 192 kb/s
  44. Channel(s) : 2 channels
  45. Channel layout : L R
  46. Sampling rate : 44.1 kHz
  47. Frame rate : 28.711 FPS (1536 SPF)
  48. Compression mode : Lossy
  49. Stream size : 32.8 MiB (6%)
  50. Title : AC3 - 2.0
  51. Language : Portuguese
  52. Service kind : Complete Main
  53. Default : Yes
  54. Forced : No
  55.  
  56. Audio #2
  57. ID : 3
  58. Format : AC-3
  59. Format/Info : Audio Coding 3
  60. Commercial name : Dolby Digital
  61. Muxing mode : Header stripping
  62. Codec ID : A_AC3
  63. Duration : 23 min 52 s
  64. Bit rate mode : Constant
  65. Bit rate : 224 kb/s
  66. Channel(s) : 2 channels
  67. Channel layout : L R
  68. Sampling rate : 48.0 kHz
  69. Frame rate : 31.250 FPS (1536 SPF)
  70. Compression mode : Lossy
  71. Delay relative to video : 64 ms
  72. Stream size : 38.3 MiB (7%)
  73. Title : AC3 - 2.0
  74. Language : Japanese
  75. Service kind : Complete Main
  76. Default : No
  77. Forced : No
  78.  
  79. Text #1
  80. ID : 4
  81. Format : ASS
  82. Codec ID : S_TEXT/ASS
  83. Codec ID/Info : Advanced Sub Station Alpha
  84. Compression mode : Lossless
  85. Title : Forçada
  86. Language : Portuguese
  87. Default : No
  88. Forced : Yes
  89.  
  90. Text #2
  91. ID : 5
  92. Format : ASS
  93. Codec ID : S_TEXT/ASS
  94. Codec ID/Info : Advanced Sub Station Alpha
  95. Compression mode : Lossless
  96. Title : Completa
  97. Language : Portuguese
  98. Default : No
  99. Forced : No
  100.  
  101. Menu
  102. 00:00:00.000 : :Chapter 1
  103. 00:01:34.011 : :Chapter 2
  104. 00:11:14.966 : :Chapter 3
  105. 00:22:05.950 : :Chapter 4
  106. 00:23:35.956 : :Chapter 5
RAW Paste Data