Guest User

American Assassin (2017) [1080p] Bluray [x264]

a guest
Nov 23rd, 2017
238
Never
Not a member of Pastebin yet? Sign Up, it unlocks many cool features!
  1. General
  2. Format : MPEG-4
  3. Format profile : Base Media / Version 2
  4. Codec ID : mp42 (isom/iso2/avc1/mp41)
  5. File size : 2.44 GiB
  6. Duration : 1 h 51 min
  7. Overall bit rate mode : Variable
  8. Overall bit rate : 3 133 kb/s
  9. Encoded date : UTC 2017-11-22 18:05:54
  10. Tagged date : UTC 2017-11-22 18:05:54
  11. Writing application : HandBrake 1.0.7 2017040900
  12.  
  13. Video
  14. ID : 1
  15. Format : AVC
  16. Format/Info : Advanced Video Codec
  17. Format profile : High@L4
  18. Format settings, CABAC : Yes
  19. Format settings, RefFrames : 4 frames
  20. Codec ID : avc1
  21. Codec ID/Info : Advanced Video Coding
  22. Duration : 1 h 51 min
  23. Bit rate : 3 000 kb/s
  24. Width : 1 920 pixels
  25. Height : 804 pixels
  26. Display aspect ratio : 2.40:1
  27. Frame rate mode : Variable
  28. Frame rate : 23.976 (24000/1001) FPS
  29. Minimum frame rate : 23.974 FPS
  30. Maximum frame rate : 23.981 FPS
  31. Color space : YUV
  32. Chroma subsampling : 4:2:0
  33. Bit depth : 8 bits
  34. Scan type : Progressive
  35. Bits/(Pixel*Frame) : 0.081
  36. Stream size : 2.34 GiB (96%)
  37. Writing library : x264 core 148 r2708 86b7198
  38. Encoding settings : cabac=1 / ref=4 / deblock=1:0:0 / analyse=0x3:0x113 / me=hex / subme=6 / psy=1 / psy_rd=1.00:0.00 / mixed_ref=1 / me_range=16 / chroma_me=1 / trellis=1 / 8x8dct=1 / cqm=0 / deadzone=21,11 / fast_pskip=1 / chroma_qp_offset=-2 / threads=4 / lookahead_threads=1 / sliced_threads=0 / nr=0 / decimate=1 / interlaced=0 / bluray_compat=0 / constrained_intra=0 / bframes=3 / b_pyramid=2 / b_adapt=1 / b_bias=0 / direct=1 / weightb=1 / open_gop=0 / weightp=2 / keyint=240 / keyint_min=24 / scenecut=40 / intra_refresh=0 / rc_lookahead=30 / rc=2pass / mbtree=1 / bitrate=3000 / ratetol=1.0 / qcomp=0.60 / qpmin=0 / qpmax=69 / qpstep=4 / cplxblur=20.0 / qblur=0.5 / ip_ratio=1.40 / aq=1:1.00
  39. Encoded date : UTC 2017-11-22 18:05:54
  40. Tagged date : UTC 2017-11-22 18:05:54
  41. Color range : Limited
  42. Color primaries : BT.709
  43. Transfer characteristics : BT.709
  44. Matrix coefficients : BT.709
  45.  
  46. Audio
  47. ID : 2
  48. Format : AAC
  49. Format/Info : Advanced Audio Codec
  50. Format profile : LC
  51. Codec ID : 40
  52. Duration : 1 h 51 min
  53. Bit rate mode : Variable
  54. Bit rate : 128 kb/s
  55. Channel(s) : 2 channels
  56. Channel positions : Front: L R
  57. Sampling rate : 48.0 kHz
  58. Frame rate : 46.875 FPS (1024 SPF)
  59. Compression mode : Lossy
  60. Stream size : 102 MiB (4%)
  61. Title : Stereo / Stereo
  62. Language : English
  63. Default : Yes
  64. Alternate group : 1
  65. Encoded date : UTC 2017-11-22 18:05:54
  66. Tagged date : UTC 2017-11-22 18:05:54
RAW Paste Data