Henry_Kr

BBRoTJ-2000

Oct 10th, 2019
158
Never
Not a member of Pastebin yet? Sign Up, it unlocks many cool features!
  1. Video
  2. ID : 1
  3. Format : AVC
  4. Format/Info : Advanced Video Codec
  5. Format profile : High@L4.1
  6. Format settings : CABAC / 4 Ref Frames
  7. Format settings, CABAC : Yes
  8. Format settings, Reference : 4 frames
  9. Muxing mode : Header stripping
  10. Codec ID : V_MPEG4/ISO/AVC
  11. Duration : 1 h 16 min
  12. Bit rate : 10.7 Mb/s
  13. Width : 1 440 pixels
  14. Height : 1 080 pixels
  15. Display aspect ratio : 4:3
  16. Frame rate mode : Constant
  17. Frame rate : 23.976 (24000/1001) FPS
  18. Color space : YUV
  19. Chroma subsampling : 4:2:0
  20. Bit depth : 8 bits
  21. Scan type : Progressive
  22. Bits/(Pixel*Frame) : 0.288
  23. Stream size : 5.63 GiB (92%)
  24. Title : Batman.Beyond.Return.of.The.Joker.2000.REPACK.1080p.Bluray.[CartoonNOW]
  25. Writing library : x264 core 115 r1936 7a9e08d
  26. Encoding settings : cabac=1 / ref=4 / deblock=1:-1:-1 / analyse=0x3:0x112 / me=umh / subme=7 / psy=1 / psy_rd=1.00:0.00 / mixed_ref=1 / me_range=16 / chroma_me=1 / trellis=1 / 8x8dct=1 / cqm=0 / deadzone=21,11 / fast_pskip=1 / chroma_qp_offset=-2 / threads=12 / sliced_threads=0 / nr=0 / decimate=1 / interlaced=0 / bluray_compat=0 / constrained_intra=0 / bframes=3 / b_pyramid=2 / b_adapt=2 / b_bias=0 / direct=1 / weightb=1 / open_gop=0 / weightp=2 / keyint=250 / keyint_min=23 / scenecut=40 / intra_refresh=0 / rc_lookahead=40 / rc=2pass / mbtree=1 / bitrate=10725 / ratetol=1.0 / qcomp=0.60 / qpmin=0 / qpmax=69 / qpstep=4 / cplxblur=20.0 / qblur=0.5 / ip_ratio=1.40 / aq=1:1.00
  27. Language : English
  28. Default : Yes
  29. Forced : No
  30.  
  31. Audio #1
  32. ID : 2
  33. Format : AC-3
  34. Format/Info : Audio Coding 3
  35. Commercial name : Dolby Digital
  36. Muxing mode : Header stripping
  37. Codec ID : A_AC3
  38. Duration : 1 h 16 min
  39. Bit rate mode : Constant
  40. Bit rate : 192 kb/s
  41. Channel(s) : 2 channels
  42. Channel layout : L R
  43. Sampling rate : 48.0 kHz
  44. Frame rate : 31.250 FPS (1536 SPF)
  45. Bit depth : 16 bits
  46. Compression mode : Lossy
  47. Stream size : 105 MiB (2%)
  48. Title : AC3 2.0
  49. Language : Portuguese
  50. Service kind : Complete Main
  51. Default : Yes
  52. Forced : No
  53.  
  54. Audio #2
  55. ID : 3
  56. Format : AC-3
  57. Format/Info : Audio Coding 3
  58. Commercial name : Dolby Digital
  59. Muxing mode : Header stripping
  60. Codec ID : A_AC3
  61. Duration : 1 h 16 min
  62. Bit rate mode : Constant
  63. Bit rate : 448 kb/s
  64. Channel(s) : 6 channels
  65. Channel layout : L R C LFE Ls Rs
  66. Sampling rate : 48.0 kHz
  67. Frame rate : 31.250 FPS (1536 SPF)
  68. Bit depth : 16 bits
  69. Compression mode : Lossy
  70. Stream size : 246 MiB (4%)
  71. Title : AC3 5.1
  72. Language : English
  73. Service kind : Complete Main
  74. Default : No
  75. Forced : No
  76.  
  77. Text
  78. ID : 4
  79. Format : UTF-8
  80. Codec ID : S_TEXT/UTF8
  81. Codec ID/Info : UTF-8 Plain Text
  82. Title : Completa
  83. Language : Portuguese
  84. Default : No
  85. Forced : No
RAW Paste Data