SHARE
TWEET

Untitled

a guest Jul 21st, 2016 8 Never
Not a member of Pastebin yet? Sign Up, it unlocks many cool features!
  1.  
  2.  
  3. + title 1:
  4.   + stream: /tmp/Epic_t00.mkv
  5.   + duration: 01:42:29
  6.   + size: 1920x1080, pixel aspect: 1/1, display aspect: 1.78, 23.976 fps
  7.   + autocrop: 140/140/2/0
  8.   + support opencl: no
  9.   + chapters:
  10.     + 1: cells 0->0, 0 blocks, duration 00:04:48
  11.     + 2: cells 0->0, 0 blocks, duration 00:05:01
  12.     + 3: cells 0->0, 0 blocks, duration 00:03:16
  13.     + 4: cells 0->0, 0 blocks, duration 00:03:45
  14.     + 5: cells 0->0, 0 blocks, duration 00:03:46
  15.     + 6: cells 0->0, 0 blocks, duration 00:03:33
  16.     + 7: cells 0->0, 0 blocks, duration 00:04:08
  17.     + 8: cells 0->0, 0 blocks, duration 00:03:15
  18.     + 9: cells 0->0, 0 blocks, duration 00:02:35
  19.     + 10: cells 0->0, 0 blocks, duration 00:04:15
  20.     + 11: cells 0->0, 0 blocks, duration 00:04:56
  21.     + 12: cells 0->0, 0 blocks, duration 00:01:40
  22.     + 13: cells 0->0, 0 blocks, duration 00:02:07
  23.     + 14: cells 0->0, 0 blocks, duration 00:02:03
  24.     + 15: cells 0->0, 0 blocks, duration 00:03:33
  25.     + 16: cells 0->0, 0 blocks, duration 00:03:48
  26.     + 17: cells 0->0, 0 blocks, duration 00:03:23
  27.     + 18: cells 0->0, 0 blocks, duration 00:03:35
  28.     + 19: cells 0->0, 0 blocks, duration 00:04:22
  29.     + 20: cells 0->0, 0 blocks, duration 00:06:48
  30.     + 21: cells 0->0, 0 blocks, duration 00:03:48
  31.     + 22: cells 0->0, 0 blocks, duration 00:01:48
  32.     + 23: cells 0->0, 0 blocks, duration 00:03:50
  33.     + 24: cells 0->0, 0 blocks, duration 00:01:16
  34.     + 25: cells 0->0, 0 blocks, duration 00:02:15
  35.     + 26: cells 0->0, 0 blocks, duration 00:04:32
  36.     + 27: cells 0->0, 0 blocks, duration 00:02:07
  37.     + 28: cells 0->0, 0 blocks, duration 00:08:17
  38.   + audio tracks:
  39.     + 1, English (DTS-HD MA) (5.1 ch) (iso639-2: eng)
  40.     + 2, English (DTS) (5.1 ch) (iso639-2: eng), 48000Hz, 1536000bps
  41.     + 3, English (AC3) (5.1 ch) (iso639-2: eng), 48000Hz, 448000bps
  42.   + subtitle tracks:
  43.     + 1, English (iso639-2: eng) (Bitmap)(PGS)
  44.  
  45.  
  46.  
  47. HandBrakeCLI --input "/tmp/Epic_t00.mkv" --main-feature --chapters 1 --maxHeight 720 --crop 0:0:0:0 --markers --x264-preset medium --x264-tune animation --two-pass --turbo --audio 2 --aencoder faac,ac3 --ab 160,384 --subtitle none --output "Epic (2013).mp4"
  48.  
  49.  
  50.  
  51. avconv version 12_dev0-6:12~~git20150809.1542ec9~ubuntu14.04.1, Copyright (c) 2000-2015 the Libav developers
  52.   built on Aug  9 2015 17:41:33 with gcc 4.8 (Ubuntu 4.8.4-2ubuntu1~14.04)
  53. Input #0, mov,mp4,m4a,3gp,3g2,mj2, from 'Epic (2013).mp4':
  54.   Metadata:
  55.     major_brand     : mp42
  56.     minor_version   : 512
  57.     compatible_brands: isomiso2avc1mp41
  58.     creation_time   : 2016-07-21 11:36:43
  59.     title           : Epic
  60.     encoder         : HandBrake 20160716194210-39d0352-master 2016071901
  61.   Duration: 00:04:48.24, start: 0.000000, bitrate: 4200 kb/s
  62.     Stream #0:0(und): Video: h264 (High) [avc1 / 0x31637661]
  63.       yuv420p, tv, bt709/bt709/bt709
  64.       1920x720 [PAR 2:3 DAR 16:9], 4034 kb/s
  65.       23.98 fps, 90k tbn, 180k tbc (default)
  66.     Metadata:
  67.       creation_time   : 2016-07-21 11:36:43
  68.       handler_name    : VideoHandler
  69.     Stream #0:1(eng): Audio: aac [mp4a / 0x6134706D]
  70.       48000 Hz, stereo, fltp, 159 kb/s (default)
  71.     Metadata:
  72.       creation_time   : 2016-07-21 11:36:43
  73.       handler_name    : Stereo
  74. At least one output file must be specified
  75.  
  76.  
  77.  
  78. General
  79. Complete name                            : Epic (2013).mp4
  80. Format                                   : MPEG-4
  81. Format profile                           : Base Media / Version 2
  82. Codec ID                                 : mp42
  83. File size                                : 144 MiB
  84. Duration                                 : 4mn 48s
  85. Overall bit rate mode                    : Variable
  86. Overall bit rate                         : 4 200 Kbps
  87. Movie name                               : Epic
  88. Encoded date                             : UTC 2016-07-21 11:36:43
  89. Tagged date                              : UTC 2016-07-21 11:36:43
  90. Writing application                      : HandBrake 20160716194210-39d0352-master 2016071901
  91.  
  92. Video
  93. ID                                       : 1
  94. Format                                   : AVC
  95. Format/Info                              : Advanced Video Codec
  96. Format profile                           : High@L4.0
  97. Format settings, CABAC                   : Yes
  98. Format settings, ReFrames                : 6 frames
  99. Codec ID                                 : avc1
  100. Codec ID/Info                            : Advanced Video Coding
  101. Duration                                 : 4mn 48s
  102. Bit rate                                 : 4 034 Kbps
  103. Width                                    : 1 920 pixels
  104. Height                                   : 720 pixels
  105. Display aspect ratio                     : 16:9
  106. Original display aspect ratio            : 16:9
  107. Frame rate mode                          : Variable
  108. Frame rate                               : 23.976 fps
  109. Minimum frame rate                       : 23.974 fps
  110. Maximum frame rate                       : 23.981 fps
  111. Color space                              : YUV
  112. Chroma subsampling                       : 4:2:0
  113. Bit depth                                : 8 bits
  114. Scan type                                : Progressive
  115. Bits/(Pixel*Frame)                       : 0.122
  116. Stream size                              : 139 MiB (96%)
  117. Writing library                          : x264 core 146 r2538 121396c
  118. Encoding settings                        : cabac=1 / ref=6 / deblock=1:1:1 / analyse=0x3:0x113 / me=hex / subme=7 / psy=1 / psy_rd=0.40:0.00 / mixed_ref=1 / me_range=16 / chroma_me=1 / trellis=1 / 8x8dct=1 / cqm=0 / deadzone=21,11 / fast_pskip=1 / chroma_qp_offset=-2 / threads=6 / lookahead_threads=1 / sliced_threads=0 / nr=0 / decimate=1 / interlaced=0 / bluray_compat=0 / constrained_intra=0 / bframes=5 / b_pyramid=2 / b_adapt=1 / b_bias=0 / direct=1 / weightb=1 / open_gop=0 / weightp=2 / keyint=240 / keyint_min=24 / scenecut=40 / intra_refresh=0 / rc_lookahead=40 / rc=crf / mbtree=1 / crf=22.0 / qcomp=0.60 / qpmin=0 / qpmax=69 / qpstep=4 / ip_ratio=1.40 / aq=1:0.60
  119. Encoded date                             : UTC 2016-07-21 11:36:43
  120. Tagged date                              : UTC 2016-07-21 11:36:43
  121. Color primaries                          : BT.709
  122. Transfer characteristics                 : BT.709
  123. Matrix coefficients                      : BT.709
  124.  
  125. Audio
  126. ID                                       : 2
  127. Format                                   : AAC
  128. Format/Info                              : Advanced Audio Codec
  129. Format profile                           : LC
  130. Codec ID                                 : 40
  131. Duration                                 : 4mn 48s
  132. Bit rate mode                            : Variable
  133. Bit rate                                 : 159 Kbps
  134. Channel(s)                               : 2 channels
  135. Channel positions                        : Front: L R
  136. Sampling rate                            : 48.0 KHz
  137. Compression mode                         : Lossy
  138. Stream size                              : 5.47 MiB (4%)
  139. Title                                    : Stereo
  140. Language                                 : English
  141. Encoded date                             : UTC 2016-07-21 11:36:43
  142. Tagged date                              : UTC 2016-07-21 11:36:43
RAW Paste Data
We use cookies for various purposes including analytics. By continuing to use Pastebin, you agree to our use of cookies as described in the Cookies Policy. OK, I Understand
 
Top