Guest User

Untitled

a guest
May 6th, 2019
42
Never
Not a member of Pastebin yet? Sign Up, it unlocks many cool features!
  1. General
  2. Complete name : Lost.In.Space.1998.1080p.BluRay.REMUX.VC-1.DTS-HD.MA.5.1-EPSiLON.mkv
  3. Format : Matroska
  4. Format version : Version 4
  5. File size : 25.4 GiB
  6. Duration : 2 h 10 min
  7. Overall bit rate mode : Variable
  8. Overall bit rate : 27.9 Mb/s
  9. Encoded date : UTC 2018-03-02 15:55:27
  10. Writing application : mkvmerge v9.6.0 ('Slave To Your Mind') 64bit
  11. Writing library : libebml v1.3.4 + libmatroska v1.4.5
  12.  
  13. Video
  14. ID : 1
  15. Format : VC-1
  16. Format profile : Advanced@L3
  17. Codec ID : V_MS/VFW/FOURCC / WVC1
  18. Codec ID/Hint : Microsoft
  19. Duration : 2 h 10 min
  20. Bit rate : 22.9 Mb/s
  21. Width : 1 920 pixels
  22. Height : 1 080 pixels
  23. Display aspect ratio : 16:9
  24. Frame rate mode : Constant
  25. Frame rate : 23.976 (24000/1001) FPS
  26. Color space : YUV
  27. Chroma subsampling : 4:2:0
  28. Bit depth : 8 bits
  29. Scan type : Progressive
  30. Compression mode : Lossy
  31. Bits/(Pixel*Frame) : 0.461
  32. Stream size : 20.8 GiB (82%)
  33. Title : VC-1 Video / 22908 kbps / 1080p / 23.976 fps / 16:9 / Advanced Profile 3
  34. Language : English
  35. Default : Yes
  36. Forced : No
  37.  
  38. Audio #1
  39. ID : 2
  40. Format : DTS XLL
  41. Format/Info : Digital Theater Systems
  42. Commercial name : DTS-HD Master Audio
  43. Codec ID : A_DTS
  44. Duration : 2 h 10 min
  45. Bit rate mode : Variable
  46. Bit rate : 4 198 kb/s
  47. Channel(s) : 6 channels
  48. Channel layout : C L R Ls Rs LFE
  49. Sampling rate : 48.0 kHz
  50. Frame rate : 93.750 FPS (512 SPF)
  51. Bit depth : 24 bits
  52. Compression mode : Lossless
  53. Stream size : 3.82 GiB (15%)
  54. Title : DTS-HD Master Audio / 5.1 / 48 kHz / 4198 kbps / 24-bit
  55. Language : English
  56. Default : Yes
  57. Forced : No
  58.  
  59. Audio #2
  60. ID : 3
  61. Format : AC-3
  62. Format/Info : Audio Coding 3
  63. Commercial name : Dolby Digital
  64. Codec ID : A_AC3
  65. Duration : 2 h 10 min
  66. Bit rate mode : Constant
  67. Bit rate : 192 kb/s
  68. Channel(s) : 2 channels
  69. Channel layout : L R
  70. Sampling rate : 48.0 kHz
  71. Frame rate : 31.250 FPS (1536 SPF)
  72. Bit depth : 16 bits
  73. Compression mode : Lossy
  74. Stream size : 179 MiB (1%)
  75. Title : Commentary with Director Stephen Hopkins and Writer Akiva Goldsman
  76. Language : English
  77. Service kind : Complete Main
  78. Default : No
  79. Forced : No
  80.  
  81. Audio #3
  82. ID : 4
  83. Format : AC-3
  84. Format/Info : Audio Coding 3
  85. Commercial name : Dolby Digital
  86. Codec ID : A_AC3
  87. Duration : 2 h 10 min
  88. Bit rate mode : Constant
  89. Bit rate : 192 kb/s
  90. Channel(s) : 2 channels
  91. Channel layout : L R
  92. Sampling rate : 48.0 kHz
  93. Frame rate : 31.250 FPS (1536 SPF)
  94. Bit depth : 16 bits
  95. Compression mode : Lossy
  96. Stream size : 179 MiB (1%)
  97. Title : Commentary with Director Stephen Hopkins, Producer Carla Fry, Director of Photography Peter Levy, VFX Supervisor Angus Bickerton and VFX Producer Lauren Ritchie
  98. Language : English
  99. Service kind : Complete Main
  100. Default : No
  101. Forced : No
  102.  
  103. Text #1
  104. ID : 5
  105. Format : PGS
  106. Codec ID : S_HDMV/PGS
  107. Codec ID/Info : Picture based subtitle format used on BDs/HD-DVDs
  108. Duration : 2 h 9 min
  109. Bit rate : 30.9 kb/s
  110. Count of elements : 3286
  111. Stream size : 28.7 MiB (0%)
  112. Title : SDH
  113. Language : English
  114. Default : No
  115. Forced : No
  116.  
  117. Text #2
  118. ID : 6
  119. Format : PGS
  120. Codec ID : S_HDMV/PGS
  121. Codec ID/Info : Picture based subtitle format used on BDs/HD-DVDs
  122. Duration : 2 h 9 min
  123. Bit rate : 26.2 kb/s
  124. Count of elements : 2988
  125. Stream size : 24.3 MiB (0%)
  126. Title : Mandarin (Traditional)
  127. Language : Chinese
  128. Default : No
  129. Forced : No
  130.  
  131. Text #3
  132. ID : 7
  133. Format : PGS
  134. Codec ID : S_HDMV/PGS
  135. Codec ID/Info : Picture based subtitle format used on BDs/HD-DVDs
  136. Duration : 2 h 9 min
  137. Bit rate : 28.7 kb/s
  138. Count of elements : 2958
  139. Stream size : 26.6 MiB (0%)
  140. Language : French
  141. Default : No
  142. Forced : No
  143.  
  144. Text #4
  145. ID : 8
  146. Format : PGS
  147. Codec ID : S_HDMV/PGS
  148. Codec ID/Info : Picture based subtitle format used on BDs/HD-DVDs
  149. Duration : 2 h 9 min
  150. Bit rate : 36.2 kb/s
  151. Count of elements : 3322
  152. Stream size : 33.7 MiB (0%)
  153. Language : German
  154. Default : No
  155. Forced : No
  156.  
  157. Text #5
  158. ID : 9
  159. Format : PGS
  160. Codec ID : S_HDMV/PGS
  161. Codec ID/Info : Picture based subtitle format used on BDs/HD-DVDs
  162. Duration : 2 h 9 min
  163. Bit rate : 28.0 kb/s
  164. Count of elements : 2964
  165. Stream size : 26.0 MiB (0%)
  166. Language : Greek
  167. Default : No
  168. Forced : No
  169.  
  170. Text #6
  171. ID : 10
  172. Format : PGS
  173. Codec ID : S_HDMV/PGS
  174. Codec ID/Info : Picture based subtitle format used on BDs/HD-DVDs
  175. Duration : 2 h 1 min
  176. Bit rate : 22.6 kb/s
  177. Count of elements : 2941
  178. Stream size : 19.6 MiB (0%)
  179. Language : Japanese
  180. Default : No
  181. Forced : No
  182.  
  183. Text #7
  184. ID : 11
  185. Format : PGS
  186. Codec ID : S_HDMV/PGS
  187. Codec ID/Info : Picture based subtitle format used on BDs/HD-DVDs
  188. Duration : 2 h 9 min
  189. Bit rate : 28.4 kb/s
  190. Count of elements : 2958
  191. Stream size : 26.4 MiB (0%)
  192. Language : Portuguese
  193. Default : No
  194. Forced : No
  195.  
  196. Text #8
  197. ID : 12
  198. Format : PGS
  199. Codec ID : S_HDMV/PGS
  200. Codec ID/Info : Picture based subtitle format used on BDs/HD-DVDs
  201. Duration : 2 h 9 min
  202. Bit rate : 27.6 kb/s
  203. Count of elements : 3188
  204. Stream size : 25.7 MiB (0%)
  205. Title : Latin American
  206. Language : Spanish
  207. Default : No
  208. Forced : No
  209.  
  210. Text #9
  211. ID : 13
  212. Format : PGS
  213. Codec ID : S_HDMV/PGS
  214. Codec ID/Info : Picture based subtitle format used on BDs/HD-DVDs
  215. Duration : 2 h 10 min
  216. Bit rate : 51.7 kb/s
  217. Count of elements : 4735
  218. Stream size : 48.1 MiB (0%)
  219. Title : Commentary #1
  220. Language : Chinese
  221. Default : No
  222. Forced : No
  223.  
  224. Text #10
  225. ID : 14
  226. Format : PGS
  227. Codec ID : S_HDMV/PGS
  228. Codec ID/Info : Picture based subtitle format used on BDs/HD-DVDs
  229. Duration : 2 h 10 min
  230. Bit rate : 46.5 kb/s
  231. Count of elements : 4416
  232. Stream size : 43.2 MiB (0%)
  233. Title : Commentary #2
  234. Language : Chinese
  235. Default : No
  236. Forced : No
  237.  
  238. Text #11
  239. ID : 15
  240. Format : PGS
  241. Codec ID : S_HDMV/PGS
  242. Codec ID/Info : Picture based subtitle format used on BDs/HD-DVDs
  243. Duration : 2 h 10 min
  244. Bit rate : 43.4 kb/s
  245. Count of elements : 3704
  246. Stream size : 40.3 MiB (0%)
  247. Title : Commentary #1
  248. Language : Japanese
  249. Default : No
  250. Forced : No
  251.  
  252. Text #12
  253. ID : 16
  254. Format : PGS
  255. Codec ID : S_HDMV/PGS
  256. Codec ID/Info : Picture based subtitle format used on BDs/HD-DVDs
  257. Duration : 2 h 8 min
  258. Bit rate : 44.2 kb/s
  259. Count of elements : 3322
  260. Stream size : 40.7 MiB (0%)
  261. Title : Commentary #2
  262. Language : Japanese
  263. Default : No
  264. Forced : No
  265.  
  266. Menu
  267. 00:00:00.000 : en:Earth
  268. 00:04:22.136 : en:Mission Objective
  269. 00:07:19.564 : en:Goodbye!
  270. 00:09:22.853 : en:Major West
  271. 00:12:01.804 : en:Dr. Smith
  272. 00:13:24.261 : en:Welcome Aboard!
  273. 00:17:58.994 : en:Primary Directives
  274. 00:20:30.395 : en:Launch!
  275. 00:25:34.282 : en:Destroy!
  276. 00:34:02.331 : en:Initiate Hyperdrive
  277. 00:36:20.178 : en:Lost in Space
  278. 00:42:01.727 : en:The Proteus
  279. 00:47:20.671 : en:Exploration
  280. 00:54:52.205 : en:Giant Spiders!
  281. 01:07:23.873 : en:Follow Orders
  282. 01:12:06.780 : en:Alien World
  283. 01:19:19.546 : en:The Core
  284. 01:25:33.294 : en:Danger Will!
  285. 01:31:20.057 : en:A Different Future
  286. 01:38:26.150 : en:Spiders Sting
  287. 01:44:45.237 : en:Time to Die!
  288. 01:51:49.911 : en:Time Travel
  289. 01:57:08.479 : en:Escape Velocity
  290. 02:00:04.197 : en:Alpha Prime
RAW Paste Data